Торрент файл
скачать торрент магнет ссылка Добавлен: 25 май 2011, 02:05
Размер: 4.71 ГБ
Сидеров: 14
Личеров: 6
Автор

СообщениеДобавлено: 25 май 2011, 02:05 

Не в сети
Супермодератор
Аватара пользователя
Дата регистрации:
22 май 2010, 11:03
Возраст: 31
Спасибо: 7509 / 13
Сообщения: 49940
В джазе только девушки / Some Like It Hot

Перевод: Профессиональный (полное дублирование), cубтитры: Русские
Формат: HDRip-AVC, MKV, H.264, AC3
Страна: США
Режиссер: Билли Уайлдер
Жанр: комедия, музыка, мелодрама, криминал
Продолжительность: 02:01:32
Год выпуска: 1959

В ролях: Мэрилин Монро, Тони Кертис, Джек Леммон, Джордж Рафт, Пэт О’Брайен, Джо Э. Браун, Нехемия Персофф, Джоан Шоули

Описание: Когда чикагские музыканты Джо и Джерри случайно становятся свидетелями бандитской перестрелки, они в срочном порядке смываются на поезде во Флориду, прикинувшись женщинами. Теперь они - Джозефина и Дафна, новенькие и хорошенькие инструменталистки женского джаз - банда.
До поры до времени их маскировка срабатывает. Но вскоре любвеобильная солистка «западает» на переодетую мужчиной Джозефину, престарелый плейбой влюбляется в Дафну, а босс мафии, разгадав тайну маскарада, решает срочно разделаться со свидетелями...






Видео: 1192 x 720 (1.656), 23.976 fps, AVCх264, High@L4.1, ~2 411 kbps, 0.117 bit/pixel [/field]
Аудио: 1: русский 48 kHz, AC3 Dolby Digital, 2/0 (L,R) 2ch, ~192 kbps [Профессиональный (полное дублирование)Советский + ОРТ]
Аудио: 2: русский 48 kHz, AC3 Dolby Digital, 2/0 (L,R) 2ch, ~192 kbps [Профессиональный (полное дублирование)Советский + MVO]
Аудио: 3: русский 48 kHz, AC3 Dolby Digital, 2/0 (L,R) 2ch, ~192 kbps [Профессиональный (двухголосый, закадровый) НТВ+| AC-3]
Аудио: 4: русский 48 kHz, AC3 Dolby Digital, 3/2 (L,C,R,l,r) + LFE ch, ~448 kbps [Профессиональный (многоголосый, закадровый)AC-3]
Аудио: 5: русский 48 kHz, AC3 Dolby Digital, 3/2 (L,C,R,l,r) + LFE ch, ~384 kbps [Профессиональный (многоголосый, закадровый)Blu-ray CEE]
Аудио: 6: русский 48 kHz, AC3 Dolby Digital, 3/2 (L,C,R,l,r) + LFE ch, ~384 kbps [Профессиональный (многоголосый, закадровый)Позитив-Мультимедиа]
Аудио: 7: русский 48 kHz, AC3 Dolby Digital, 2/0 (L,R) 2ch, ~192 kbps [Авторский, А.Михалев (поздний)]
Аудио: 8: русский 48 kHz, AC3 Dolby Digital, 2/0 (L,R) ch, ~192 kbps [Авторский, А.Михалев (раннний)]
Аудио: 9: русский 48 kHz, AC3 Dolby Digital, 2/0 (L,R) ch, ~192 kbps [Авторский, Владислав «Лектор» Огородников]
Аудио: 10: русский 48 kHz, AC3 Dolby Digital, 2/0 (L,R) ch, ~192 kbps [Профессиональный (двухголосый, закадровый) НТВ+]
Аудио: 11: русский 48 kHz, AC3 Dolby Digital, 2/0 (L,R) ch, ~192 kbps [Профессиональный (двухголосый, закадровый) НТВ]
Аудио: 12: русский 48 kHz, AC3 Dolby Digital, 3/2 (L,C,R,l,r) + LFE ch, ~384 kbps [Авторский, Живов]

General
Unique ID: 246294909298531713506862024007037066810 (0xB94AAC919BEBDAC0A56728E291959E3A)
Complete name: E:\РЕЛИЗЫ\Все релизы 15\v_dzhaze_tolko_devyshki_[tfile.ru]\v_dzhase_tolko_devyshki_[tfile.ru].mkv
Format: Matroska
File size: 2.21 GiB
Duration: 2h 1mn
Overall bit rate: 2 605 Kbps
Movie name: Rip by PunisheR [nolimits-team.ru]
Encoded date: UTC 2011-05-11 02:57:38
Writing application: mkvmerge v3.2.0 ('Beginnings') built on Feb 12 2010 16:46:17
Writing library: libebml v0.7.9 + libmatroska v0.8.1

Video
ID: 2
Format: AVC
Format/Info: Advanced Video Codec
Format profile: High@L4.1
Format settings, CABAC: Yes
Format settings, ReFrames: 3 frames
Codec ID: V_MPEG4/ISO/AVC
Duration: 2h 1mn
Bit rate mode: Variable
Bit rate: 2 411 Kbps
Maximum bit rate: 15.0 Mbps
Width: 1 192 pixels
Height: 720 pixels
Display aspect ratio: 1.656
Frame rate: 23.976 fps
Color space: YUV
Chroma subsampling: 4:2:0
Bit depth: 8 bits
Scan type: Progressive
Bits/(Pixel*Frame): 0.117
Stream size: 2.00 GiB (91%)
Title: Some.Like.It.Hot.1959.[nolimits-team.ru]
Writing library: x264 core 115 r1937 aa21558
Encoding settings: cabac=1 / ref=1 / deblock=1:0:0 / analyse=0x3:0x3 / me=dia / subme=1 / psy=1 / psy_rd=0.00:0.00 / mixed_ref=0 / me_range=16 / chroma_me=1 / trellis=0 / 8x8dct=1 / cqm=0 / deadzone=21,11 / fast_pskip=1 / chroma_qp_offset=0 / threads=6 / sliced_threads=0 / slices=4 / nr=0 / decimate=1 / interlaced=0 / bluray_compat=1 / constrained_intra=0 / bframes=3 / b_pyramid=1 / b_adapt=1 / b_bias=0 / direct=1 / weightb=1 / open_gop=0 / weightp=1 / keyint=24 / keyint_min=1 / scenecut=40 / intra_refresh=0 / rc_lookahead=0 / rc=abr / mbtree=0 / bitrate=2411 / ratetol=1.0 / qcomp=0.60 / qpmin=0 / qpmax=69 / qpstep=4 / vbv_maxrate=15000 / vbv_bufsize=15000 / nal_hrd=vbr / ip_ratio=1.10 / pb_ratio=1.10 / aq=1:1.00
Language: Russian

Audio
ID: 1
Format: AC-3
Format/Info: Audio Coding 3
Mode extension: CM (complete main)
Codec ID: A_AC3
Duration: 2h 1mn
Bit rate mode: Constant
Bit rate: 192 Kbps
Channel(s): 2 channels
Channel positions: Front: L R
Sampling rate: 48.0 KHz
Bit depth: 16 bits
Compression mode: Lossy
Stream size: 167 MiB (7%)
Title: Дубляж, Советский + ОРТ
Language: Russian

Text
ID: 3
Format: UTF-8
Codec ID: S_TEXT/UTF8
Codec ID/Info: UTF-8 Plain Text
Title: Russian
Language: Russian


















реклама партнёра


Вернуться к началу
 Профиль Отправить личное сообщение  
 
   Похожие торренты   Автор   Торрент   Размер 
В этой теме нет новых непрочитанных сообщений. Билли и Билли / Billy and Billie [S01x01-10 из 10] (Нил ЛаБут) [2015, Драма, мелодрама, комедия, WEB-DLRip | Lord32x Studio]

Dracon

11 | 11

4.4 ГБ

В этой теме нет новых непрочитанных сообщений. Билли и Билли / Billy and Billie [S01x01-10 из 10] (Нил ЛаБут) [2015, Драма, мелодрама, комедия, WEB-DL 720p | Lord32x Studio]

Dracon

8 | 5

8.95 ГБ

В этой теме нет новых непрочитанных сообщений. Свинг-герлз / Свингующие девушки / Swing Girls [Драма, комедия, музыка, 2004] BDRip 1080p, Avo+Sub

salma3

15 | 5

7.41 ГБ

В этой теме нет новых непрочитанных сообщений. Опрометчивый / HairBrained (Билли Кент) [Комедия, 2013] HDRip, Dvo

Dracon

388 | 82

1.36 ГБ

В этой теме нет новых непрочитанных сообщений. Последние девушки / The Final Girls (Тодд Штраус-Шульсон) [Ужасы, комедия, 2015] HDRip, Mvo [iTunes]

Dracon

2611 | 45

1.45 ГБ

В этой теме нет новых непрочитанных сообщений. Легенда о Билли Джин / The Legend of Billie Jean [боевик, 1985] HDRip, Dvo [НТВ+]

salma3

29 | 3

1.45 ГБ

В этой теме нет новых непрочитанных сообщений. Укуренные / Up in Smoke [комедия, музыка, 1978] HDRip-AVC, Avo

salma3

99 | 7

2.17 ГБ


Начать новую тему Ответить на тему  [ 1 сообщение ] 




Для Мосгорсуда, Роскомнадзора и рекламодателей:: mosgorsud-torrent[собачка]yandex.ru