Торрент файл
скачать торрент магнет ссылка Добавлен: 25 май 2011, 02:04
Размер: 746.04 МБ
Сидеров: 62
Личеров: 8
Автор

СообщениеДобавлено: 25 май 2011, 02:04 

Не в сети
Супермодератор
Аватара пользователя
Дата регистрации:
22 май 2010, 11:03
Возраст: 31
Спасибо: 7524 / 13
Сообщения: 49940
Эта замечательная жизнь (Эта прекрасная жизнь) / It's a Wonderful Life



Перевод: профессиональный (многоголосый закадровый)
Субтитры: отсутствуют
Формат: LowHDRip-AVC, MKV, H.264, AC3

Страна: США
Режиссер: Фрэнк Капра
Жанр: драма, фэнтези, семейный

Продолжительность: 02:10:35
Год выпуска: 1946

В ролях: Джеймс Стюарт, Донна Рид, Лайонел Бэрримор, Томас Митчелл, Генри Траверз (I), Бела Бонди, Фрэнк Фэйлин, Уорд Бонд, Глория Грэм, Х. Б. Уорнер, Фрэнк Албертсон, Тодд Карнс, Сэмюэл С. Хайндз, Мэри Трин, Вирджиния Паттон, Уильям Эдмандс, Лиллиэн Рэндолф, Арджентина Брунетти, Бобби Андерсон, Ронни Ральф, Джорджи Нокс, Шелдон Леонард

Описание: Сюжет основан на короткой истории под названием "Самый большой подарок".

Джордж Бейли, владелец кредитной компании в выдуманном американском городке Бедфорд Фоллс, честный, отзывчивый, любящий муж и отец, подавлен свалившимися на него невзгодами и подумывает о самоубийстве.

Очевидно, что человек, отказывающийся от самого большого дара Бога — жизни — нуждается в помощи ангела-хранителя. И Небеса отправляют ему на выручку Кларенса, единственного свободного на тот момент Ангела Второго Класса, приятного, доброго, но неопытного, еще даже не заслужившего крылья.

Если он сделает свою работу хорошо и сможет отговорить Джорджа от смертного греха, он получит крылья. А времени у него почти не осталось… Кларенс находит единственно правильное решение — показать Джорджу мир, в котором тот не существует.




Видео: 528x392 (1.35:1), 23.976 fps, AVC (x264), High@L4.1, ~669 kbps avg, 0.135 bit/pixel

Аудио: 48 kHz, AC3 Dolby Digital, 3/2 (L,C,R,l,r) + LFE ch, ~128 kbps avg

Релиз-Группы




Общее
Уникальный идентификатор: 193283992793139342235491336620479217932 (0x916924984FFBFCD5B48A6DD6BE5A010C)
Полное имя: D:\eta_zamechatelnaja_zhizn`_[tfile.ru].mkv
Формат: Matroska
Размер файла: 746 Мбайт
Продолжительность: 2 ч. 10 м.
Общий поток: 799 Кбит/сек
Дата кодирования: UTC 2011-05-16 15:45:12
Программа кодирования: mkvmerge v4.6.0 ('Still Crazy After All These Years') сборка от Apr1 2011 21:01:49
Библиотека кодирования: libebml v1.2.0 + libmatroska v1.1.0

Видео
Идентификатор: 1
Формат: AVC
Формат/Информация: Advanced Video Codec
Профиль формата: High@L4.1
Параметр CABAC формата: Да
Параметр ReFrames формата: 16 кадры
Идентификатор кодека: V_MPEG4/ISO/AVC
Продолжительность: 2 ч. 10 м.
Битрейт: 669 Кбит/сек
Ширина: 528 пикс.
Высота: 392 пикс.
Соотношение сторон: 4:3
Частота кадров: 23,976 кадр/сек
Цветовое пространство: YUV
Подвыборка цветности: 4:2:0
Битовая глубина: 8 бит
Тип развёртки: Прогрессивная
Бит/(Пиксели*Кадры): 0.135
Размер потока: 612 Мбайт (82%)
Библиотека кодирования: x264 core 115 r1937 aa21558
Настройки программы: cabac=1 / ref=16 / deblock=1:0:0 / analyse=0x3:0x133 / me=umh / subme=10 / psy=1 / psy_rd=1.00:0.10 / mixed_ref=1 / me_range=24 / chroma_me=1 / trellis=2 / 8x8dct=1 / cqm=0 / deadzone=21,11 / fast_pskip=1 / chroma_qp_offset=-3 / threads=3 / sliced_threads=0 / nr=0 / decimate=1 / interlaced=0 / bluray_compat=0 / constrained_intra=0 / bframes=8 / b_pyramid=2 / b_adapt=2 / b_bias=0 / direct=3 / weightb=1 / open_gop=0 / weightp=2 / keyint=250 / keyint_min=23 / scenecut=40 / intra_refresh=0 / rc_lookahead=60 / rc=2pass / mbtree=1 / bitrate=669 / ratetol=1.0 / qcomp=0.60 / qpmin=0 / qpmax=69 / qpstep=4 / cplxblur=20.0 / qblur=0.5 / ip_ratio=1.40 / aq=1:1.00

Аудио
Идентификатор: 2
Формат: AC-3
Формат/Информация: Audio Coding 3
Расширение режима: CM (complete main)
Идентификатор кодека: A_AC3
Продолжительность: 2 ч. 10 м.
Вид битрейта: Постоянный
Битрейт: 128 Кбит/сек
Канал(ы): 6 канала(ов)
Расположение каналов: Front: L C R, Side: L R, LFE
Частота: 48,0 КГц
Битовая глубина: 16 бит
Метод сжатия: С потерями
Размер потока: 120 Мбайт (16%)


В 1990 году включён в Национальный регистр фильмов.

Оскар, 1947 год
Номинации (5):
>>>Лучший фильм
>>>Лучшая мужская роль (Джеймс Стюарт)
>>>Лучший режиссер (Фрэнк Капра)
>>>Лучший звук
>>>Лучший монтаж

Золотой глобус, 1947 год
Победитель (1):
>>>Лучший режиссер (Фрэнк Капра)


1998 год - 11 место в списке величайших фильмов;
2002 год - 8 место в списке величайших фильмов о любви;
2003 год - Джордж Бейли на 9 месте в списке положительных героев, Генри Поттер на 6 месте в списке злодеев;
2006 год - 1 место в списке самых вдохновляющих фильмов (имеются в виду фильмы, которые вдохновляют жить, бороться и верить в людей);
2008 год - 3 место в списке величайших фэнтезийных фильмов;




















реклама партнёра


Вернуться к началу
 Профиль Отправить личное сообщение  
 
   Похожие торренты   Автор   Торрент   Размер 
В этой теме нет новых непрочитанных сообщений. Эта прекрасная жизнь / Жизнь прекрасна / Life Is Beautiful [Драма, мелодрама, 2012] HDRip, Mvo [Red Media]

salma3

1 | 2

1.46 ГБ

В этой теме нет новых непрочитанных сообщений. VA - Compact Disc Club. Wonderful Life (4 CD Box Set) [2011, Rock & Pop Ballads, MP3]

PriZraK

0 | 1

756.02 МБ

В этой теме нет новых непрочитанных сообщений. Менее привычная жизнь / A Life Less Ordinary [фэнтези, драма, мелодрама, комедия, криминал, 1997] BDRip 720p, Mvo

salma3

63 | 31

4.53 ГБ

В этой теме нет новых непрочитанных сообщений. Невероятная жизнь Уолтера Митти / The Secret Life of Walter Mitty [фэнтези, драма, комедия, приключения, 2013] TS, dub

Ανδρέας

6591 | 639

1.37 ГБ

В этой теме нет новых непрочитанных сообщений. Невероятная жизнь Уолтера Митти / The Secret Life of Walter Mitty [фэнтези, драма, комедия, приключения, 2013] WEB-DLRip, Mvo

Dracon

38 | 11

2.05 ГБ

В этой теме нет новых непрочитанных сообщений. Невероятная жизнь Уолтера Митти / The Secret Life of Walter Mitty [фэнтези, драма, комедия, приключения, 2013] WEB-DL 1080p, Mvo

Dracon

24 | 3

3.73 ГБ

В этой теме нет новых непрочитанных сообщений. Невероятная жизнь Уолтера Митти / The Secret Life of Walter Mitty [фэнтези, драма, комедия, приключения, 2013] DVDScr, dub [Звук с TS]

Dracon

3451 | 349

2.05 ГБ


Начать новую тему Ответить на тему  [ 1 сообщение ] 




Для Мосгорсуда, Роскомнадзора и рекламодателей:: mosgorsud-torrent[собачка]yandex.ru