Торрент файл
скачать торрент магнет ссылка Добавлен: 12 окт 2019, 21:50
Размер: 744.98 МБ
Сидеров: 6
Личеров: 0
Статус: (salma3)
Автор

СообщениеДобавлено: 12 окт 2019, 21:50 

Не в сети
Супермодератор
Аватара пользователя
Дата регистрации:
15 фев 2012, 16:44
Возраст: 32
Спасибо: 8325 / 2148
Сообщения: 97229
Год выхода: 2002
Жанр: боевик, приключения, детектив
Режиссер: Луи Летерье, Кори Юэнь

В ролях: Джейсон Стэйтем, Шу Ци, Мэтт Шульце, Франсуа Берлеан, Рик Янг, Даг Рэнд, Дидье Сен Мелен, Тони Десканвелль, Лорен Деспонд, Маттье Альбертини

О фильме:
Когда-то Фрэнк Мартин служил в частях особого назначения, а сейчас обосновался на средиземноморском побережье Франции, зарабатывая себе на жизнь перевозкой грузов — далеко не всегда безобидных. Выполняя секретные и порой опасные задания на своем BMW, Фрэнк придерживается строгих правил. Правило первое: никогда не нарушать условий сделки. Правило второе: никаких имен — Фрэнк не хочет знать, ни на кого работает, ни какой товар перевозит. Правило третье: никогда не заглядывать в багаж. Последний груз, похоже, ничем не отличается от всех прочих. Его поручил переправить американец по прозвищу «Уолл-стрит» (см. правило второе), но когда Фрэнк по дороге делает остановку, он замечает, что его багаж шевелится. Нарушив правило номер три, Фрэнк заглядывает внутрь и обнаруживает прекрасную женщину с кляпом во рту. Два других запрета, от которых зависят безопасность и жизнь Фрэнка, также скоро нарушаются. В результате «перевозчик» и его неожиданная попутчица вступают на опасный путь, на котором их ждут страшные тайны, смертельные ловушки и удивительное для Фрэнка открытие — правила, по которым он раньше жил, созданы для того, чтобы их нарушать...



Страна: США, Франция
Продолжительность: 01:32:32
Перевод: Профессиональный (полное дублирование)

Файл
Кодек: H.264
Качество: BDRip-AVC
Видео: 804x344, 23.976 fps, 1052 kb/s
Звук: AAC-HE, 2ch, 72kbps

Video
ID : 1
Format : AVC
Format/Info : Advanced Video Codec
Format profile : High@L4.1
Format settings : CABAC / 12 Ref Frames
Format settings, CABAC : Yes
Format settings, Reference : 12 frames
Codec ID : V_MPEG4/ISO/AVC
Duration : 1 h 32 min
Bit rate : 1 052 kb/s
Width : 804 pixels
Height : 344 pixels
Display aspect ratio : 2.35:1
Frame rate mode : Constant
Frame rate : 23.976 (24000/1001) FPS
Color space : YUV
Chroma subsampling : 4:2:0
Bit depth : 8 bits
Scan type : Progressive
Bits/(Pixel*Frame) : 0.159
Stream size : 696 MiB (93%)
Title : Rip by donadar
Writing library : x264 core 130 r2273 b3065e6
Encoding settings : cabac=1 / ref=12 / deblock=1:-1:-1 / analyse=0x3:0x133 / me=umh / subme=10 / psy=1 / psy_rd=1.00:0.13 / mixed_ref=1 / me_range=32 / chroma_me=1 / trellis=2 / 8x8dct=1 / cqm=0 / deadzone=21,11 / fast_pskip=0 / chroma_qp_offset=-3 / threads=6 / lookahead_threads=1 / sliced_threads=0 / nr=0 / decimate=0 / interlaced=0 / bluray_compat=0 / constrained_intra=0 / bframes=12 / b_pyramid=2 / b_adapt=2 / b_bias=0 / direct=3 / weightb=1 / open_gop=0 / weightp=2 / keyint=240 / keyint_min=23 / scenecut=40 / intra_refresh=0 / rc_lookahead=40 / rc=2pass / mbtree=1 / bitrate=1052 / ratetol=1.0 / qcomp=0.60 / qpmin=0 / qpmax=69 / qpstep=4 / cplxblur=20.0 / qblur=0.5 / ip_ratio=1.40 / aq=2:1.00
Language : English
Default : Yes
Forced : No

Audio
ID : 2
Format : AAC LC SBR
Format/Info : Advanced Audio Codec Low Complexity with Spectral Band Replication
Commercial name : HE-AAC
Format settings : Explicit
Codec ID : A_AAC-2
Duration : 1 h 32 min
Bit rate : 72.0 kb/s
Channel(s) : 2 channels
Channel layout : L R
Sampling rate : 48.0 kHz
Frame rate : 23.438 FPS (2048 SPF)
Compression mode : Lossy
Delay relative to video : 31 ms
Stream size : 47.7 MiB (6%)
Language : Russian
Default : Yes
Forced : No


Релиз от: donadar


_________________
Проголосуй за трекер Открытый торрент трекер - RUS-MEDIA.ORG

Проголосуй Открытый торрент трекер - RUS-MEDIA.ORG


Вернуться к началу
 Профиль Отправить личное сообщение  
 
   Похожие торренты   Автор   Торрент   Размер 
В этой теме нет новых непрочитанных сообщений. Перевозчик 2 / Transporter 2 [боевик, триллер, криминал, 2005] WEB-DLRip, Dub [Театральная версия] [Open Matte]

salma3

0 | 0

1.46 ГБ

В этой теме нет новых непрочитанных сообщений. Кто я? / Ngo si seoi [боевик, комедия, приключения, 1998] WEB-DLRip, Dub [Uncut]

salma3

2 | 1

1.45 ГБ

В этой теме нет новых непрочитанных сообщений. Неогранённые драгоценности / Uncut Gems [триллер, криминал, детектив, 2019] WEB-DL 720p, Dub [Пифагор]

salma3

0 | 0

3.69 ГБ

В этой теме нет новых непрочитанных сообщений. Неогранённые драгоценности / Uncut Gems [Триллер, криминал, детектив, 2019] WEB-DLRip, Dub [Пифагор]

salma3

0 | 0

1.46 ГБ

В этой теме нет новых непрочитанных сообщений. Идеальный побег / A Perfect Getaway [триллер, детектив, приключения, 2009] BDRip-AVC, Dub [Режиссерская версия]

salma3

0 | 0

745.99 МБ

В этой теме нет новых непрочитанных сообщений. Входит ниндзя / Enter the Ninja [боевик, драма, 1981] BDRip 720p, Dvo [ТВ3] [UNCUT]

salma3

0 | 0

6.83 ГБ

В этой теме нет новых непрочитанных сообщений. Центурион / Centurion [боевик, триллер, приключения, 2010] BDRip-AVC, Dub [Open Matte]

salma3

0 | 0

3.06 ГБ


Начать новую тему Ответить на тему  [ 1 сообщение ] 




Для Мосгорсуда, Роскомнадзора и рекламодателей:: rstracker[собака]yandex.ru
cron