COVID-19 - Последняя информация о коронавирусе на сайте Минздрава




Торрент файл
скачать торрент магнет ссылка Добавлен: 12 окт 2019, 00:58
Размер: 1.44 ГБ
Сидеров: 9
Личеров: 4
Статус: (salma3)
Автор

СообщениеДобавлено: 12 окт 2019, 00:58 

Не в сети
Супермодератор
Аватара пользователя
Дата регистрации:
15 фев 2012, 16:44
Возраст: 31
Спасибо: 8280 / 2148
Сообщения: 96717
Год выхода: 2019
Жанр: Ужасы, триллер, детектив
Режиссер: Ларс Клевберг

В ролях: Кэтрин Прескотт, Тайлер Янг, Саманта Логан, Кинэн Трэйси, Присцилла Квинтана, Хавьер Ботет, Митч Пилледжи, Дави Сантос, Кэти Стивенс, Грейс Забриски и др.

О фильме: В руки к нелюдимой старшекласснице Бёрд, работающей в антикварном магазине, попадает винтажный фотоаппарат Polaroid. Девушка тут же делает снимок коллеги, а позже подруга вытаскивает её на вечеринку, где все тоже очень любят фотографироваться. В этот же вечер Бёрд узнаёт, что парень из магазина мёртв, а когда погибает и хозяйка вечеринки, Бёрд начинает догадываться, кто умрёт следующим. Дьявольское устройство убивает любого, кто окажется на фотографии, сделанной с его помощью, и теперь группа подростков должна разрешить загадку проклятия, пока фотоаппарат не прикончил их всех.



Страна: Канада, Норвегия, США
Продолжительность: 01:27:59
Перевод: Дублированный[iTunes]

Файл
Формат: AVI
Качество: BDRip
Видео: Xvid 73, 720x304, 1951 kbps, 24,000 fps
Звук: русский, AC3, 5.1 ch, 48 kHz, 384 kbps | iTunes

Общее
Полное имя : G:Torrent2PolaroidBDRip.avi
Формат : AVI
Формат/Информация : Audio Video Interleave
Профиль формата : OpenDML
Размер файла : 1,44 Гбайт
Продолжительность : 1 ч. 27 м.
Общий поток : 2346 Кбит/сек
Программа кодирования : XviD4PSP 6.0 / 53.6.0

Видео
Идентификатор : 0
Формат : MPEG-4 Visual
Профиль формата : Advanced Simple@L5
Настройки формата : BVOP1 / Custom Matrix
Параметр BVOP формата : 1
Параметр QPel формата : Нет
Параметр GMC формата : Без точки перехода
Параметр матрицы формата : Выборочная
Идентификатор кодека : XVID
Идентификатор кодека/Подсказка : XviD
Продолжительность : 1 ч. 27 м.
Битрейт : 1951 Кбит/сек
Ширина : 720 пикселей
Высота : 304 пикселя
Соотношение сторон : 2,35:1
Частота кадров : 24,000 кадра/сек
Цветовое пространство : YUV
Субдискретизация насыщенности : 4:2:0
Битовая глубина : 8 бит
Тип развёртки : Прогрессивная
Метод сжатия : С потерями
Бит/(Пиксели*Кадры) : 0.371
Размер потока : 1,20 Гбайт (83%)
Библиотека кодирования : XviD 73

Аудио
Идентификатор : 1
Формат : AC-3
Формат/Информация : Audio Coding 3
Параметр Endianness формата : Big
Идентификатор кодека : 2000
Продолжительность : 1 ч. 27 м.
Вид битрейта : Постоянный
Битрейт : 384 Кбит/сек
Каналы : 6 каналов
Расположение каналов : Front: L C R, Side: L R, LFE
Частота : 48,0 КГц
Частота кадров : 31,250 кадров/сек (1536 SPF)
Битовая глубина : 16 бит
Метод сжатия : С потерями
Размер потока : 241 Мбайт (16%)
Выравнивание : Соединение по промежуткам
Продолжительность промежутка : 32 мс. (0,77 видеокадр)



Рип и релиз от:


_________________
Проголосуй за трекер Открытый торрент трекер - RUS-MEDIA.ORG

Проголосуй Открытый торрент трекер - RUS-MEDIA.ORG


Скачать книги и аудио книги через торрент


Вернуться к началу
 Профиль Отправить личное сообщение  
 
   Похожие торренты   Автор   Торрент   Размер 
В этой теме нет новых непрочитанных сообщений. Пункт назначения: Смайл / Полароид / Polaroid [Ужасы, триллер, детектив, 2019] BDRip 1080p, Dub [iTunes]

salma3

10 | 1

5.63 ГБ

В этой теме нет новых непрочитанных сообщений. Пункт назначения: Смайл / Полароид / Polaroid [Ужасы, триллер, детектив, 2019] BDRip 720p, Dub [iTunes]

salma3

0 | 0

3.64 ГБ

В этой теме нет новых непрочитанных сообщений. Пункт назначения: Смайл / Polaroid [Ужасы, триллер, детектив, 2019] BDRip 1080p, Dub [iTunes]

salma3

1 | 0

6.14 ГБ

В этой теме нет новых непрочитанных сообщений. Полароид / Polaroid [Ужасы, триллер, драма, 2019] BDRip, Mvo

salma3

509 | 26

1.46 ГБ

В этой теме нет новых непрочитанных сообщений. Полароид / Polaroid [Ужасы, триллер, драма, 2019] BDRip 1080p, Mvo

salma3

1 | 6

6.67 ГБ

В этой теме нет новых непрочитанных сообщений. Полароид / Polaroid [Ужасы, триллер, драма, 2019] HDRip, Mvo

salma3

0 | 0

1.45 ГБ

В этой теме нет новых непрочитанных сообщений. Пункт назначения 3 / Final Destination 3 [ужасы, триллер, 2006] BDRip-AVC, Dub [Open Matte]

salma3

5 | 1

2.06 ГБ


Начать новую тему Ответить на тему  [ 1 сообщение ] 




Для Мосгорсуда, Роскомнадзора и рекламодателей:: rstracker[собака]yandex.ru
cron