Торрент файл
скачать торрент магнет ссылка Добавлен: 11 окт 2019, 21:58
Размер: 1.46 ГБ
Сидеров: 0
Личеров: 0
Статус: (salma3)
Автор

СообщениеДобавлено: 11 окт 2019, 21:58 

Не в сети
Супермодератор
Аватара пользователя
Дата регистрации:
15 фев 2012, 16:44
Возраст: 30
Спасибо: 8128 / 2147
Сообщения: 94452
Год выхода: 1984
Жанр: Боевик, комедия, фантастика
Режиссер: Алекс Кокс

В ролях: Гарри Дин Стэнтон, Эмилио Эстевез, Трейси Уолтер, Оливия Бэраш, Сай Ричардсон, Сьюзэн Барнс, Фокс Харрис, Том Финнеган, Дел Замора, Эдди Велес, Зандер Шлосс, Дженнифер Бэлгобин, Дик Руд, Мигель Сандовал, Вонетта МакГи, Ричард Форонджи, Брюс Уайт, Бифф Йеджер, Эд Пэнсалло, Стив Маттсон, Томас Р. Бойд, Чарльз Хопкинс, Хелен Мартин, Джон Ст. Элвуд, Келитта Келли

О фильме:
Сердитый молодой парень с серьгой в ухе, уволенный из супермаркета за неуживчивый характер и незамысловатую привычку посылать всех на три буквы, знакомится с экспроприатором, и это меняет его судьбу. Эти люди должны возвращать купленные в рассрочку автомобили, если покупатели прекращают выплачивать взносы, что сопряжено зачастую с опасностью. Но не это главное... ФБР разыскивает автомобиль «Шевроле-Малибу», в багажнике которого лежит радиоактивный труп инопланетянина. Всякий, открывший багажник, превратится в пепел. Бригада экспроприаторов начинает охоту за опасной машиной, за рулем которой — физик-ядерщик…



Выпущено: США, Edge City
Продолжительность: 01:32:22
Перевод: Профессиональный (двухголосый, закадровый), авторский (одноголосый, закадровый)

Файл
Формат: Matroska
Качество: BDRip-AVC
Видео: 960x540 at 23.976 fps, x264, ~1874 kbps, 0.151 bpp
Аудио #1: AC3, 2 ch, ~192 kbps - | Русский | - DVO
Аудио #2: AC3, 2 ch, ~192 kbps - | Русский | - AVO [Антон Пронин]
Субтитры: Russian, English
Формат субтитров: softsub (SRT)

General
Complete name : Конфискатор.(1984).BDRip-AVC.F.S.mkv
Format : Matroska
Format version : Version 4
File size : 1.46 GiB
Duration : 1 h 32 min
Overall bit rate : 2 259 kb/s
Movie name : Конфискатор.(1984).BDRip-AVC
Encoded date : UTC 2019-10-11 16:57:27
Writing application : mkvmerge v38.0.0 ('The Silent Type') 64-bit
Writing library : libebml v1.3.9 + libmatroska v1.5.2
Attachments : poster.jpg / poster 2.jpg

Video
ID : 1
Format : AVC
Format/Info : Advanced Video Codec
Format profile : High@L4.1
Format settings : CABAC / 16 Ref Frames
Format settings, CABAC : Yes
Format settings, Reference : 16 frames
Codec ID : V_MPEG4/ISO/AVC
Duration : 1 h 32 min
Bit rate : 1 874 kb/s
Width : 960 pixels
Height : 540 pixels
Display aspect ratio : 16:9
Frame rate mode : Constant
Frame rate : 23.976 (24000/1001) FPS
Color space : YUV
Chroma subsampling : 4:2:0
Bit depth : 8 bits
Scan type : Progressive
Bits/(Pixel*Frame) : 0.151
Stream size : 1.21 GiB (83%)
Title : Repo Man (1984)
Writing library : x264 core 148 r2638 7599210
Encoding settings : cabac=1 / ref=16 / deblock=1:0:0 / analyse=0x3:0x133 / me=umh / subme=10 / psy=1 / psy_rd=1.00:0.00 / mixed_ref=1 / me_range=24 / chroma_me=1 / trellis=2 / 8x8dct=1 / cqm=0 / deadzone=21,11 / fast_pskip=1 / chroma_qp_offset=-2 / threads=6 / lookahead_threads=1 / sliced_threads=0 / nr=0 / decimate=1 / interlaced=0 / bluray_compat=0 / constrained_intra=0 / bframes=8 / b_pyramid=2 / b_adapt=2 / b_bias=0 / direct=3 / weightb=1 / open_gop=0 / weightp=2 / keyint=240 / keyint_min=23 / scenecut=40 / intra_refresh=0 / rc_lookahead=60 / rc=2pass / mbtree=0 / bitrate=1874 / ratetol=1.0 / qcomp=0.60 / qpmin=0 / qpmax=69 / qpstep=4 / cplxblur=20.0 / qblur=0.5 / vbv_maxrate=62500 / vbv_bufsize=78125 / nal_hrd=none / filler=0 / ip_ratio=1.40 / pb_ratio=1.30 / aq=1:1.00
Language : English
Default : Yes
Forced : No

Audio #1
ID : 2
Format : AC-3
Format/Info : Audio Coding 3
Commercial name : Dolby Digital
Codec ID : A_AC3
Duration : 1 h 32 min
Bit rate mode : Constant
Bit rate : 192 kb/s
Channel(s) : 2 channels
Channel layout : L R
Sampling rate : 48.0 kHz
Frame rate : 31.250 FPS (1536 SPF)
Compression mode : Lossy
Stream size : 127 MiB (8%)
Title : Russian (DVO)
Language : Russian
Service kind : Complete Main
Default : Yes
Forced : No

Audio #2
ID : 3
Format : AC-3
Format/Info : Audio Coding 3
Commercial name : Dolby Digital
Codec ID : A_AC3
Duration : 1 h 32 min
Bit rate mode : Constant
Bit rate : 192 kb/s
Channel(s) : 2 channels
Channel layout : L R
Sampling rate : 48.0 kHz
Frame rate : 31.250 FPS (1536 SPF)
Compression mode : Lossy
Stream size : 127 MiB (9%)
Title : AVO_[Антон Пронин]
Language : Russian
Service kind : Complete Main
Default : No
Forced : No

Text #1
ID : 4
Format : UTF-8
Codec ID : S_TEXT/UTF8
Codec ID/Info : UTF-8 Plain Text
Duration : 1 h 28 min
Bit rate : 110 b/s
Count of elements : 1142
Stream size : 71.8 KiB (0%)
Language : Russian
Default : No
Forced : No

Text #2
ID : 5
Format : UTF-8
Codec ID : S_TEXT/UTF8
Codec ID/Info : UTF-8 Plain Text
Duration : 1 h 28 min
Bit rate : 61 b/s
Count of elements : 1212
Stream size : 40.1 KiB (0%)
Language : English
Default : No
Forced : No

Menu
00:00:00.000 : en:Глава 01
00:05:00.000 : en:Глава 02
00:10:00.000 : en:Глава 03
00:15:00.000 : en:Глава 04
00:20:00.000 : en:Глава 05
00:25:00.000 : en:Глава 06
00:30:00.000 : en:Глава 07
00:35:00.000 : en:Глава 08
00:40:00.000 : en:Глава 09
00:45:00.000 : en:Глава 10
00:50:00.000 : en:Глава 11
00:55:00.000 : en:Глава 12
01:00:00.000 : en:Глава 13
01:05:00.000 : en:Глава 14
01:10:00.000 : en:Глава 15
01:15:00.000 : en:Глава 16
01:20:00.000 : en:Глава 17
01:25:00.000 : en:Глава 18
01:30:00.000 : en:Глава 19


_________________
Проголосуй за трекер Открытый торрент трекер - RUS-MEDIA.ORG

Проголосуй Открытый торрент трекер - RUS-MEDIA.ORG


Скачать книги и аудио книги через торрент


Вернуться к началу
 Профиль Отправить личное сообщение  
 
   Похожие торренты   Автор   Торрент   Размер 
В этой теме нет новых непрочитанных сообщений. Охота на роботов / Runaway [фантастика, боевик, триллер, 1984] BDRip-AVC, Dvo

salma3

0 | 0

2 ГБ

В этой теме нет новых непрочитанных сообщений. Потрошители / Repo Men [Фантастика, боевик, триллер, 2010] HDRip-AVC, Dub [Unrated]

salma3

163 | 43

744.73 МБ

В этой теме нет новых непрочитанных сообщений. Зло, творимое людьми / The Evil That Men Do [боевик, триллер, драма, 1984] BDRip-AVC, Dvo

salma3

0 | 0

2.9 ГБ

В этой теме нет новых непрочитанных сообщений. Информатор / Inside Man: Most Wanted [боевик, 2019] BDRip-AVC, Dvo

salma3

0 | 0

744.29 МБ

В этой теме нет новых непрочитанных сообщений. Танк / Tank [Боевик, комедия, драма, 1984] WEB-DLRip-AVC, Dvo

salma3

23 | 3

2.18 ГБ

В этой теме нет новых непрочитанных сообщений. Класс 1984 / Class of 1984 [боевик, триллер, драма, 1982] BDRip-AVC, Avo

salma3

5 | 6

2.18 ГБ

В этой теме нет новых непрочитанных сообщений. Охота на роботов / Runaway [фантастика, боевик, триллер, 1984] BDRip 1080p, Dvo

salma3

0 | 0

8.78 ГБ


Начать новую тему Ответить на тему  [ 1 сообщение ] 




Для Мосгорсуда, Роскомнадзора и рекламодателей:: mosgorsud-torrent[собачка]yandex.ru
cron