Торрент файл
скачать торрент магнет ссылка Добавлен: 07 окт 2019, 02:00
Размер: 741.94 МБ
Сидеров: 7
Личеров: 3
Статус: (salma3)
Автор

СообщениеДобавлено: 07 окт 2019, 02:00 

Не в сети
Супермодератор
Аватара пользователя
Дата регистрации:
15 фев 2012, 16:44
Возраст: 30
Спасибо: 8128 / 2147
Сообщения: 94452
Год выхода: 2015
Жанр: боевик, комедия
Режиссер: Дон Майкл Пол

В ролях: Дольф Лундгрен, Фиона Врум, Сара Стрэйндж, Алекс Паунович, Билл Беллами, Андре Трикоте, Джоди Томпсон, Рафаэль Алехандро, Дарла Тейлор, Энид-Рэй Адамс

О фильме:
Главный герой и его верный напарник должны найти съемный накопитель с секретными данными, касающимися федеральной программы защиты свидетелей, который, по случайному стечению обстоятельств, оказывается в руках прелестной воспитательницы детского сада. Но ситуацию усугубляет то, что за этой информацией параллельно охотятся албанские бандиты…



Страна: США
Продолжительность: 01:40:06
Перевод: Дублированный [Лицензия]

Файл
Кодек: H.264
Качество: BDRip-AVC
Видео: 768x432, 23.976 fps, 963kb/s
Звук: AAC-HE, 2ch, 72kbps

General
Unique ID : 286776309490161765505253704872540177893 (0xD7BF1BB19B08A71EE55933E1CEEF05E5)
Complete name : C:UsersПашаDownloadsДетсадовский полицейский 2.mkv
Format : Matroska
Format version : Version 4
File size : 742 MiB
Duration : 1 h 40 min
Overall bit rate : 1 036 kb/s
Encoded date : UTC 2019-10-06 17:04:04
Writing application : mkvmerge v33.1.0 ('Primrose') 64-bit
Writing library : libebml v1.3.7 + libmatroska v1.5.0
Cover : Yes
Attachments : cover.jpg

Video
ID : 1
Format : AVC
Format/Info : Advanced Video Codec
Format profile : High@L4.1
Format settings : CABAC / 12 Ref Frames
Format settings, CABAC : Yes
Format settings, Reference : 12 frames
Codec ID : V_MPEG4/ISO/AVC
Duration : 1 h 40 min
Bit rate : 963 kb/s
Width : 768 pixels
Height : 432 pixels
Display aspect ratio : 16:9
Frame rate mode : Constant
Frame rate : 23.976 (24000/1001) FPS
Color space : YUV
Chroma subsampling : 4:2:0
Bit depth : 8 bits
Scan type : Progressive
Bits/(Pixel*Frame) : 0.121
Stream size : 689 MiB (93%)
Title : Rip by donadar
Writing library : x264 core 130 r2273 b3065e6
Encoding settings : cabac=1 / ref=12 / deblock=1:-3:-3 / analyse=0x3:0x133 / me=umh / subme=10 / psy=1 / psy_rd=1.00:0.05 / mixed_ref=1 / me_range=32 / chroma_me=1 / trellis=2 / 8x8dct=1 / cqm=0 / deadzone=21,11 / fast_pskip=0 / chroma_qp_offset=-3 / threads=6 / lookahead_threads=1 / sliced_threads=0 / nr=0 / decimate=0 / interlaced=0 / bluray_compat=0 / constrained_intra=0 / bframes=10 / b_pyramid=2 / b_adapt=2 / b_bias=0 / direct=3 / weightb=1 / open_gop=0 / weightp=2 / keyint=240 / keyint_min=23 / scenecut=40 / intra_refresh=0 / rc_lookahead=60 / rc=2pass / mbtree=1 / bitrate=963 / ratetol=1.0 / qcomp=0.60 / qpmin=0 / qpmax=69 / qpstep=4 / cplxblur=20.0 / qblur=0.5 / ip_ratio=1.40 / aq=2:1.50
Language : English
Default : Yes
Forced : No

Audio
ID : 2
Format : AAC LC SBR
Format/Info : Advanced Audio Codec Low Complexity with Spectral Band Replication
Commercial name : HE-AAC
Format settings : Explicit
Codec ID : A_AAC-2
Duration : 1 h 40 min
Bit rate : 72.0 kb/s
Channel(s) : 2 channels
Channel layout : L R
Sampling rate : 48.0 kHz
Frame rate : 23.438 FPS (2048 SPF)
Compression mode : Lossy
Delay relative to video : 31 ms
Stream size : 51.6 MiB (7%)
Language : Russian
Default : Yes
Forced : No


Релиз от: donadar


_________________
Проголосуй за трекер Открытый торрент трекер - RUS-MEDIA.ORG

Проголосуй Открытый торрент трекер - RUS-MEDIA.ORG


Скачать книги и аудио книги через торрент


Вернуться к началу
 Профиль Отправить личное сообщение  
 
   Похожие торренты   Автор   Торрент   Размер 
В этой теме нет новых непрочитанных сообщений. Детсадовский полицейский / Kindergarten Cop [Боевик, триллер, комедия, 1990] BDRip 1080p, Mvo

salma3

0 | 0

15.33 ГБ

В этой теме нет новых непрочитанных сообщений. Детсадовский полицейский / Kindergarten Cop [боевик, триллер, комедия, 1990] BDRemux 1080p, Dub

salma3

0 | 0

30.58 ГБ

В этой теме нет новых непрочитанных сообщений. Плохой хороший полицейский / Bon Cop, Bad Cop [боевик, триллер, комедия, криминал, 2006] BDRip 720p, Dub

salma3

15 | 1

4.37 ГБ

В этой теме нет новых непрочитанных сообщений. Плохой хороший полицейский 2 / Bon Cop Bad Cop 2 [боевик, комедия, криминал, 2017] BDRip 720p, Mvo

salma3

244 | 108

4.01 ГБ

В этой теме нет новых непрочитанных сообщений. Маньяк-полицейский / Maniac Cop [ужасы, боевик, криминал, 1988] BDRip-AVC, Avo

salma3

50 | 7

746.38 МБ

В этой теме нет новых непрочитанных сообщений. Плохой хороший полицейский 2 / Bon Cop Bad Cop 2 [боевик, комедия, криминал, 2017] WEBDLRip, Mvo

salma3

168 | 22

2.05 ГБ

В этой теме нет новых непрочитанных сообщений. Полицейский по найму / Rent-a-Cop [боевик, триллер, комедия, 1987] DVDRip-AVC, Mvo

salma3

0 | 0

2.18 ГБ


Начать новую тему Ответить на тему  [ 1 сообщение ] 




Для Мосгорсуда, Роскомнадзора и рекламодателей:: mosgorsud-torrent[собачка]yandex.ru
cron