Торрент файл
скачать торрент магнет ссылка Добавлен: 09 сен 2019, 22:24
Размер: 1.46 ГБ
Сидеров: 1
Личеров: 0
Статус: (salma3)
Автор

СообщениеДобавлено: 09 сен 2019, 22:24 

Не в сети
Супермодератор
Аватара пользователя
Дата регистрации:
15 фев 2012, 16:44
Возраст: 32
Спасибо: 8320 / 2148
Сообщения: 97229
Год выпуска: 1989
Жанр: фэнтези, приключения
Режиссер: Энцо Дж. Кастеллари, Луиджи Колло

В ролях: Лу Ферриньо, Джон Стайнер, Роланд Уайбенга, Эннио Джиролами, Харукико Яманоути, Иегуда Эфрони, Алессандра Мартинес, Тиган Клайв, Лео Гульотта, Стефания Джиролами-Гудвин, Дональд Ходсон, Корк Хабберт, Романо Пуппо, Аттилио Сезаре Ло Пинто, Армандо МакРори, Джада Коцци, Дария Николоди, Массимо Ванни, Тед Русофф

Описание:
Синдбад должен найти пять волшебных камней, чтобы освободить город Басру от страшного проклятия. Путешествие приводит его на остров мертвых, где Синдбад сражается с воинами-призраками и, в конце концов, с собственным двойником.



Страна: Италия, США
Продолжительность: 01:33:27
Перевод: Профессиональный (многоголосый закадровый)

Формат: HDRip-AVC
Видео: 1024x544 (1.882), 23.976 fps, AVC MPEG4 (x264), , ~1248 kbps avg, 0.153 bit/pixel
Аудио: 48 kHz, AC3 Dolby Digital, 2 (L,R) ch, ~192.00 kbps avg

General
Unique ID : 183589350247936965776502221071836374968 (0x8A1E05D0688CD7B3CB718B2901C5E7B8)
Complete name : C:Users123DesktopSindbad_Legenda_semi_morej_1989_HDRIp-AVC_[tfile.ru].mkv
Format : Matroska
Format version : Version 4 / Version 2
File size : 1.46 GiB
Duration : 1h 33mn
Overall bit rate mode : Constant
Overall bit rate : 2 240 Kbps
Encoded date : UTC 2019-09-06 06:33:47
Writing application : Lavf56.36.100
Writing library : Lavf56.36.100

Video
ID : 2
Format : AVC
Format/Info : Advanced Video Codec
Format profile :
Format settings, CABAC : Yes
Format settings, ReFrames : 2 frames
Format settings, GOP : M=1, N=25
Codec ID : V_MPEG4/ISO/AVC
Duration : 1h 33mn
Bit rate mode : Constant
Bit rate : 2 048 Kbps
Width : 1 024 pixels
Height : 544 pixels
Display aspect ratio : 1.882
Frame rate mode : Constant
Frame rate : 23.976 fps
Color space : YUV
Chroma subsampling : 4:2:0
Bit depth : 8 bits
Scan type : Progressive
Bits/(Pixel*Frame) : 0.153
Stream size : 1.31 GiB (89%)
Default : Yes
Forced : No

Audio
ID : 1
Format : AC-3
Format/Info : Audio Coding 3
Mode extension : CM (complete main)
Format settings, Endianness : Big
Codec ID : A_AC3
Duration : 1h 33mn
Bit rate mode : Constant
Bit rate : 192 Kbps
Channel(s) : 2 channels
Channel positions : Front: L R
Sampling rate : 48.0 KHz
Bit depth : 32 bits
Compression mode : Lossy
Stream size : 128 MiB (9%)
Default : Yes
Forced : No


_________________
Проголосуй за трекер Открытый торрент трекер - RUS-MEDIA.ORG

Проголосуй Открытый торрент трекер - RUS-MEDIA.ORG


Вернуться к началу
 Профиль Отправить личное сообщение  
 
   Похожие торренты   Автор   Торрент   Размер 
В этой теме нет новых непрочитанных сообщений. Капитан семи морей / Capt'n Sharky [Мультфильм, мюзикл, боевик, комедия, приключения, семейный, 2018] WEB-DLRip, Dub | [iTunes]

NTL

1 | 0

743.87 МБ

В этой теме нет новых непрочитанных сообщений. Капитан семи морей / Capt'n Sharky [Мультфильм, мюзикл, боевик, 2018] WEB-DL 1080p [iTunes]

salma3

0 | 0

2.98 ГБ

В этой теме нет новых непрочитанных сообщений. Река смерти / River of Death [Боевик, Приключения, 1989] HDRip-AVC, Mvo

salma3

0 | 0

2.18 ГБ

В этой теме нет новых непрочитанных сообщений. Легенда об одиноком рейнджере / The Legend of the Lone Ranger [приключения, вестерн, 1981] HDRip-AVC, Avo

salma3

0 | 0

1.31 ГБ

В этой теме нет новых непрочитанных сообщений. Чернокнижник / Warlock [фэнтези, триллер, приключения, 1989] BDRip-AVC, Dvo

salma3

0 | 0

2.13 ГБ

В этой теме нет новых непрочитанных сообщений. Оствинд 4: Легенда о Воине / Ostwind 4: Aris Ankunft [приключения, семейный, 2019] HDRip, Mvo [ViruseProject]

salma3

0 | 0

1.48 ГБ

В этой теме нет новых непрочитанных сообщений. Поле чудес / Field of Dreams [фэнтези, драма, семейный, 1989] BDRip-AVC, Mvo

salma3

0 | 0

2.9 ГБ


Начать новую тему Ответить на тему  [ 1 сообщение ] 




Для Мосгорсуда, Роскомнадзора и рекламодателей:: rstracker[собака]yandex.ru
cron