COVID-19 - Последняя информация о коронавирусе на сайте Минздрава




Торрент файл
скачать торрент магнет ссылка Добавлен: 06 сен 2019, 11:18
Размер: 1.46 ГБ
Сидеров: 0
Личеров: 0
Статус: (salma3)
Автор

СообщениеДобавлено: 06 сен 2019, 11:18 

Не в сети
Супермодератор
Аватара пользователя
Дата регистрации:
15 фев 2012, 16:44
Возраст: 30
Спасибо: 8263 / 2148
Сообщения: 96287
Год выпуска: 1999
Жанр: фантастика, боевик, триллер
Режиссер: Айзек Флорентайн

В ролях: Дольф Лундгрен, Кэри-Хироюки Тагава, Валери Чоу, Гэри Хадсон, Джон Беннетт, Скотт Л. Шварц, Джо Кендалл, Дэйв Николс, Башар Рахаль, Велизар Бинев

Описание:
Там, где будущее и прошлое неразделимы, где кровожадный тиран рвется к власти, а народ мирится с угнетением, найдется герой, способный защитить юную принцессу от коварных притязаний злодея и восстановить справедливость в некогда мирном и спокойном королевстве. Лишь ему под силу возглавить отважные отряды повстанцев в решающей битве с вооруженными до зубов армиями врага и разрушить грандиозные планы по узурпации трона и установлению безраздельного господства.




Страна: США
Продолжительность: 01:31:38
Перевод: Профессиональный (многоголосый закадровый)

Формат: WEBDLRip-AVC
Видео: 1024x544 (1.882), 23.976 fps, AVC MPEG4 (x264), , ~2058 kbps avg, 0.154 bit/pixel
Аудио: 48 kHz, AC3 Dolby Digital, 2 (L,R) ch, ~224.00 kbps avg

General
Unique ID : 175210920676843451663072638303502558892 (0x83D06557D5FB4F039C5D3E54783766AC)
Complete name : C:\Users\123\Desktop\Битва драконов.1999.WAB-DLRip-AVC_[tfile.ru].mkv
Format : Matroska
Format version : Version 4 / Version 2
File size : 1.46 GiB
Duration : 1h 31mn
Overall bit rate mode : Constant
Overall bit rate : 2 284 Kbps
Encoded date : UTC 2019-09-04 06:55:37
Writing application : mkvmerge v7.4.0 (''Circles'') 64bit built on Dec 12 2014 12:19:56
Writing library : libebml v1.3.0 + libmatroska v1.4.1
Attachements : poster.jpg
_STATISTICS_WRITING_APP : mkvmerge v7.4.0 (''Circles'') 64bit built on Dec 12 2014 12:19:56
_STATISTICS_WRITING_DATE_UTC : 2019-09-04 06:55:37
_STATISTICS_TAGS : BPS DURATION NUMBER_OF_FRAMES NUMBER_OF_BYTES
DURATION : 01:31:38.048000000
NUMBER_OF_FRAMES : 171814
NUMBER_OF_BYTES : 153945344

Video
ID : 1
Format : AVC
Format/Info : Advanced Video Codec
Format profile :
Format settings, CABAC : Yes
Format settings, ReFrames : 2 frames
Format settings, GOP : M=1, N=25
Codec ID : V_MPEG4/ISO/AVC
Duration : 1h 31mn
Bit rate mode : Constant
Bit rate : 2 058 Kbps
Width : 1 024 pixels
Height : 544 pixels
Display aspect ratio : 1.882
Frame rate mode : Constant
Frame rate : 23.976 fps
Color space : YUV
Chroma subsampling : 4:2:0
Bit depth : 8 bits
Scan type : Progressive
Bits/(Pixel*Frame) : 0.154
Stream size : 1.29 GiB (88%)
Language : English
Default : Yes
Forced : No
DURATION : 01:31:38.076000000
NUMBER_OF_FRAMES : 131822
NUMBER_OF_BYTES : 1414271418
_STATISTICS_WRITING_APP : mkvmerge v7.4.0 (''Circles'') 64bit built on Dec 12 2014 12:19:56
_STATISTICS_WRITING_DATE_UTC : 2019-09-04 06:55:37
_STATISTICS_TAGS : BPS DURATION NUMBER_OF_FRAMES NUMBER_OF_BYTES

Audio
ID : 2
Format : AC-3
Format/Info : Audio Coding 3
Mode extension : CM (complete main)
Format settings, Endianness : Big
Codec ID : A_AC3
Duration : 1h 31mn
Bit rate mode : Constant
Bit rate : 224 Kbps
Channel(s) : 2 channels
Channel positions : Front: L R
Sampling rate : 48.0 KHz
Compression mode : Lossy
Stream size : 147 MiB (10%)
Title : MVO | Лизард Синема Трейд
Language : Russian
Default : Yes
Forced : No




_________________
Проголосуй за трекер Открытый торрент трекер - RUS-MEDIA.ORG

Проголосуй Открытый торрент трекер - RUS-MEDIA.ORG


Скачать книги и аудио книги через торрент


Вернуться к началу
 Профиль Отправить личное сообщение  
 
   Похожие торренты   Автор   Торрент   Размер 
В этой теме нет новых непрочитанных сообщений. Битва драконов / Bridge of Dragons [Боевик, приключения, 1999] WEB-DLRip, Mvo

salma3

0 | 0

1.45 ГБ

В этой теме нет новых непрочитанных сообщений. Робот 2.0 / 2.0 [фантастика, боевик, триллер, 2018] WEBDLRip-AVC, Dub [iTunes]

salma3

0 | 0

1.46 ГБ

В этой теме нет новых непрочитанных сообщений. Пандора / Pandora [01x01-10] [фантастика, боевик, драма, 2019] WEBDLRip-AVC, Mvo [LostFilm]

salma3

0 | 0

3.52 ГБ

В этой теме нет новых непрочитанных сообщений. Битва за Землю / Captive State [Фантастика, триллер, 2019] BDRip-AVC, Mvo [СВ Студия]

salma3

906 | 28

1.86 ГБ

В этой теме нет новых непрочитанных сообщений. Последний убийца драконов / The Last Dragonslayer [фэнтези, комедия, приключения, 2016] WEBDLRip, Mvo

salma3

28 | 3

1.46 ГБ

В этой теме нет новых непрочитанных сообщений. Битва за потерянную планету / Battle for the Lost Planet / Galaxy [боевик, приключения, фантастика, 1986] BDRip-AVC, Mvo

salma3

0 | 0

2.18 ГБ

В этой теме нет новых непрочитанных сообщений. Веном / Venom [боевик, фантастика, триллер, 2018] WEBDLRip, Mvo

salma3

8202 | 509

1.46 ГБ


Начать новую тему Ответить на тему  [ 1 сообщение ] 




Для Мосгорсуда, Роскомнадзора и рекламодателей:: rstracker[собака]yandex.ru
cron
cron