COVID-19 - Последняя информация о коронавирусе на сайте Минздрава




Торрент файл
скачать торрент магнет ссылка Добавлен: 05 сен 2019, 01:22
Размер: 1.45 ГБ
Сидеров: 0
Личеров: 0
Статус: (salma3)
Автор

СообщениеДобавлено: 02 сен 2019, 15:03 

Не в сети
Супермодератор
Аватара пользователя
Дата регистрации:
15 фев 2012, 16:44
Возраст: 32
Спасибо: 8298 / 2148
Сообщения: 97035
Год выпуска: 2019
Жанр: комедия, фэнтези, ужасы
Режиссер: Джим Джармуш

В ролях: Адам Драйвер, Билл Мюррей, Хлоя Севиньи, Тильда Суинтон, Стив Бушеми, Селена Гомес, RZA, Алисса Мария Апп, Карл Арчилези, Моника Эйрс

Описание:
В маленьком американском городке что-то пошло не так. День наступает ночью, домашние животные убегают в лес, по радио играет одна и та же песня. Ученые, как обычно, не могут ничего толком объяснить. Хотя даже обывателю давно понятно, что это — предвестники зомби-апокалипсиса. И жители города как никогда готовы побороться за свою плоть!



Страна: США, Швеция
Продолжительность: 01:45:23
Перевод: Дублированный[iTunes]

Формат: BDRip
Видео: Xvid 73, 704x400, ~1595 kbps, 23,976 fps
Звук: русский, AC3, 5.1 ch, 48 kHz, 384 kbps | iTunes
Субтитры: русские (форс. вшитые)

Общее
Полное имя : G:Torrent2TheDeadDontDieBDRip.avi
Формат : AVI
Формат/Информация : Audio Video Interleave
Профиль формата : OpenDML
Размер файла : 1,45 Гбайт
Продолжительность : 1 ч. 44 м.
Общий поток : 1991 Кбит/сек
Программа кодирования : XviD4PSP 6.0 / 53.6.0

Видео
Идентификатор : 0
Формат : MPEG-4 Visual
Профиль формата : Advanced Simple@L5
Настройки формата : BVOP1 / Custom Matrix
Параметр BVOP формата : 1
Параметр QPel формата : Нет
Параметр GMC формата : Без точки перехода
Параметр матрицы формата : Выборочная
Идентификатор кодека : XVID
Идентификатор кодека/Подсказка : XviD
Продолжительность : 1 ч. 44 м.
Битрейт : 1595 Кбит/сек
Ширина : 704 пикселя
Высота : 400 пикселей
Соотношение сторон : 16:9
Частота кадров : 23,976 (23976/1000) кадра/сек
Цветовое пространство : YUV
Субдискретизация насыщенности : 4:2:0
Битовая глубина : 8 бит
Тип развёртки : Прогрессивная
Метод сжатия : С потерями
Бит/(Пиксели*Кадры) : 0.236
Размер потока : 1,16 Гбайт (80%)
Библиотека кодирования : XviD 73

Аудио
Идентификатор : 1
Формат : AC-3
Формат/Информация : Audio Coding 3
Параметр Endianness формата : Big
Идентификатор кодека : 2000
Продолжительность : 1 ч. 44 м.
Вид битрейта : Постоянный
Битрейт : 384 Кбит/сек
Каналы : 6 каналов
Расположение каналов : Front: L C R, Side: L R, LFE
Частота : 48,0 КГц
Частота кадров : 31,250 кадров/сек (1536 SPF)
Битовая глубина : 16 бит
Метод сжатия : С потерями
Размер потока : 287 Мбайт (19%)
Выравнивание : Соединение по промежуткам
Продолжительность промежутка : 32 мс. (0,77 видеокадр)

релиз от:


_________________
Проголосуй за трекер Открытый торрент трекер - RUS-MEDIA.ORG

Проголосуй Открытый торрент трекер - RUS-MEDIA.ORG


Скачать книги и аудио книги через торрент


Вернуться к началу
 Профиль Отправить личное сообщение  
 
   Похожие торренты   Автор   Торрент   Размер 
В этой теме нет новых непрочитанных сообщений. Мертвые не умирают / The Dead Don't Die [комедия, фэнтези, ужасы, 2019] BDRip] Dub [iTunes]

salma3

0 | 0

1.45 ГБ

В этой теме нет новых непрочитанных сообщений. Мертвые не умирают / The Dead Don't Die [комедия, фэнтези, ужасы, 2019] BDRip 720p, Dub [iTunes]

salma3

0 | 0

3.49 ГБ

В этой теме нет новых непрочитанных сообщений. Мертвые не умирают / The Dead Don't Die [комедия, фэнтези, ужасы, 2019] BDRip-HEVC 1080p, Dub [iTunes]

salma3

28 | 2

2.96 ГБ

В этой теме нет новых непрочитанных сообщений. Человек, который убил Дон Кихота / The Man Who Killed Don Quixote [Фэнтези, драма, комедия, 2018] BDRip, Dub [iTunes]

salma3

0 | 1

1.46 ГБ

В этой теме нет новых непрочитанных сообщений. Человек, который убил Дон Кихота / The Man Who Killed Don Quixote [Фэнтези, драма, комедия, 2018] BDRip, Dub [iTunes]

salma3

0 | 0

2.12 ГБ

В этой теме нет новых непрочитанных сообщений. Мертвые души / Dead Souls [Ужасы, 2012] BDRip 720p, Mvo

salma3

0 | 0

6.77 ГБ

В этой теме нет новых непрочитанных сообщений. Человек, который убил Дон Кихота / The Man Who Killed Don Quixote [Фэнтези, драма, комедия, 2018] BDRip 1080p, Dub [iTunes]

salma3

0 | 0

13.84 ГБ


СообщениеДобавлено: 05 сен 2019, 01:23 

Не в сети
Супермодератор
Аватара пользователя
Дата регистрации:
15 фев 2012, 16:44
Возраст: 32
Спасибо: 8298 / 2148
Сообщения: 97035
salma3 писал(а):
Re: Мертвые не умирают / The Dead Don't Die [комедия, фэнтези, ужасы, 2019] BDRip, Dub [iTunes]

_________________
Проголосуй за трекер Открытый торрент трекер - RUS-MEDIA.ORG

Проголосуй Открытый торрент трекер - RUS-MEDIA.ORG


Скачать книги и аудио книги через торрент


Вернуться к началу
 Профиль Отправить личное сообщение  
 
Начать новую тему Ответить на тему  [ Сообщений: 2 ] 




Для Мосгорсуда, Роскомнадзора и рекламодателей:: rstracker[собака]yandex.ru
cron