Торрент файл
скачать торрент магнет ссылка Добавлен: 01 сен 2019, 00:45
Размер: 742.52 МБ
Сидеров: 2
Личеров: 2
Статус: (salma3)
Автор

СообщениеДобавлено: 01 сен 2019, 00:45 

Не в сети
Супермодератор
Аватара пользователя
Дата регистрации:
15 фев 2012, 16:44
Возраст: 32
Спасибо: 8321 / 2148
Сообщения: 97229
Год выхода: 1993
Жанр: Боевик, драма, биография
Режиссер: Роб Коэн

В ролях: Джейсон Скотт Ли, Лорен Холли, Роберт Вагнер, Майкл Лернд, Нэнси Кван, Кэй Тонг Лим, Рик Янг, Лоюн Ван, Стерлинг Мейсер мл., Свен-Оле Торсен

О фильме:
Биографическая драма, рассказывающая о жизни легендарного Брюса Ли, погибшего таинственным образом. Фильм снят по воспоминаниям жены Брюса Линды Ли Колдуэлл. Создатели ленты попытались показать Ли как человека, преодолевающего препятствия, неуклонно идущего к цели. Мистика и реальность переплетаются друг с другом, и Брюс Ли, великий «маленький дракон», вступает в бой не только с окружающей действительностью, но и с демоном преследующих его кошмаров.



Страна: США
Продолжительность: 01:59:57
Перевод: Дубляж

Файл
Формат: Matroska
Качество: HDRip-AVC
Видео: 720x306 at 23.976 fps, x264, ~801 kbps, 0.247 bpp
Аудио: AAC, 2 ch, ~64 kbps - | Русский | -
Субтитры: Русские
Формат субтитров: softsub (SRT)

***Релиз от: -=DoMiNo=-

x264 info: frame I:1323 Avg QP:16.07 size: 36847
x264 info: frame P:38706 Avg QP:19.56 size: 10063
x264 info: frame B:132545 Avg QP:22.16 size: 2053
x264 info: consecutive B-frames: 2.1% 2.8% 9.2% 25.1% 17.9% 34.9% 4.2% 1.7% 0.6% 0.6% 0.3% 0.2% 0.4%
General
Format : Matroska
Format version : Version 4
File size : 743 MiB
Duration : 1 h 59 min
Overall bit rate : 865 kb/s
Movie name : Дракон -История Брюса Ли.(1993).HDRip-AVC.[-=DoMiNo=-]
Encoded date : UTC 2019-08-31 16:21:45
Writing application : mkvmerge v37.0.0 ('Leave It') 64-bit
Writing library : libebml v1.3.9 + libmatroska v1.5.2
Attachments : poster.jpg / poster 2.jpg
Video
ID : 1
Format : AVC
Format/Info : Advanced Video Codec
Format profile : High@L4.1
Format settings : CABAC / 12 Ref Frames
Format settings, CABAC : Yes
Format settings, Reference : 12 frames
Codec ID : V_MPEG4/ISO/AVC
Duration : 1 h 59 min
Bit rate : 801 kb/s
Width : 720 pixels
Height : 306 pixels
Display aspect ratio : 2.35:1
Frame rate mode : Constant
Frame rate : 23.976 (24000/1001) FPS
Color space : YUV
Chroma subsampling : 4:2:0
Bit depth : 8 bits
Scan type : Progressive
Bits/(Pixel*Frame) : 0.152
Stream size : 687 MiB (93%)
Title : RIP_BY_-=DoMiNo=-
Writing library : x264 core 157 r2958 57baac4
Encoding settings : cabac=1 / ref=12 / deblock=1:-2:-2 / analyse=0x3:0x133 / me=umh / subme=11 / psy=1 / psy_rd=1.00:0.00 / mixed_ref=1 / me_range=32 / chroma_me=1 / trellis=2 / 8x8dct=1 / cqm=0 / deadzone=21,11 / fast_pskip=0 / chroma_qp_offset=-2 / threads=6 / lookahead_threads=1 / sliced_threads=0 / nr=0 / decimate=0 / interlaced=0 / bluray_compat=0 / constrained_intra=0 / bframes=12 / b_pyramid=2 / b_adapt=2 / b_bias=0 / direct=3 / weightb=1 / open_gop=0 / weightp=2 / keyint=250 / keyint_min=24 / scenecut=40 / intra_refresh=0 / rc_lookahead=60 / rc=2pass / mbtree=1 / bitrate=801 / ratetol=1.0 / qcomp=0.60 / qpmin=0 / qpmax=69 / qpstep=4 / cplxblur=20.0 / qblur=0.5 / vbv_maxrate=50000 / vbv_bufsize=62500 / nal_hrd=none / filler=0 / ip_ratio=1.40 / aq=1:1.00
Language : English
Default : Yes
Forced : No
Audio
ID : 2
Format : AAC LC SBR
Format/Info : Advanced Audio Codec Low Complexity with Spectral Band Replication
Commercial name : HE-AAC
Format settings : Explicit
Codec ID : A_AAC-2
Duration : 1 h 59 min
Bit rate : 62.7 kb/s
Channel(s) : 2 channels
Channel layout : L R
Sampling rate : 48.0 kHz
Frame rate : 23.438 FPS (2048 SPF)
Compression mode : Lossy
Stream size : 53.7 MiB (7%)
Title : DUB
Language : Russian
Default : Yes
Forced : No
Text #1
ID : 3
Format : UTF-8
Codec ID : S_TEXT/UTF8
Codec ID/Info : UTF-8 Plain Text
Duration : 1 h 6 min
Bit rate : 2 b/s
Count of elements : 23
Stream size : 1 014 Bytes (0%)
Title : Forced
Language : Russian
Default : No
Forced : Yes
Text #2
ID : 4
Format : UTF-8
Codec ID : S_TEXT/UTF8
Codec ID/Info : UTF-8 Plain Text
Duration : 1 h 51 min
Bit rate : 73 b/s
Count of elements : 1153
Stream size : 60.0 KiB (0%)
Title : BD
Language : Russian
Default : No
Forced : No
Text #3
ID : 5
Format : UTF-8
Codec ID : S_TEXT/UTF8
Codec ID/Info : UTF-8 Plain Text
Duration : 1 h 56 min
Bit rate : 67 b/s
Count of elements : 1001
Stream size : 57.8 KiB (0%)
Language : Russian
Default : No
Forced : No
Menu
00:00:00.000 : :Глава 1
00:07:08.845 : :Глава 2
00:14:34.999 : :Глава 3
00:21:55.814 : :Глава 4
00:29:42.114 : :Глава 5
00:35:56.905 : :Глава 6
00:59:34.571 : :Глава 7
01:06:23.396 : :Глава 8
01:13:10.052 : :Глава 9
01:18:59.526 : :Глава 10
01:26:32.437 : :Глава 11
01:31:05.251 : :Глава 12
01:37:15.955 : :Глава 13
01:45:30.616 : :Глава 14
01:51:17.921 : :Глава 15
01:56:15.719 : :Глава 16



_________________
Проголосуй за трекер Открытый торрент трекер - RUS-MEDIA.ORG

Проголосуй Открытый торрент трекер - RUS-MEDIA.ORG


Вернуться к началу
 Профиль Отправить личное сообщение  
 
   Похожие торренты   Автор   Торрент   Размер 
В этой теме нет новых непрочитанных сообщений. Дракон: История Брюса Ли / Dragon: The Bruce Lee Story [Боевик, драма, биография, 1993] BDRip 1080p, Dub

salma3

0 | 0

8.6 ГБ

В этой теме нет новых непрочитанных сообщений. Список Шиндлера / Schindler's List [драма, биография, история, 1993] Blu-Ray CEE, Dub

salma3

0 | 0

42.77 ГБ

В этой теме нет новых непрочитанных сообщений. Амундсен / Amundsen [Приключения, биография, история, 2019] HDRip-AVC, Dub [iTunes]

salma3

0 | 0

1.98 ГБ

В этой теме нет новых непрочитанных сообщений. Король / The King [биография, драма, история, 2019] WEB-DLRip-AVC, Dub [Пифагор]

salma3

0 | 0

1.44 ГБ

В этой теме нет новых непрочитанных сообщений. Амундсен / Amundsen [Приключения, биография, драма, история, 2019] HDRip, Dub [iTunes]

salma3

2 | 0

2.15 ГБ

В этой теме нет новых непрочитанных сообщений. Белый лебедь / Sonja: The White Swan [драма, биография, история, 2018] HDRip, Dub [iTunes]

salma3

0 | 0

1.46 ГБ

В этой теме нет новых непрочитанных сообщений. Список Шиндлера / Schindler's list [Драма, военный, биография, история, 1993] BDRip 1080p, Mvo

NTL

0 | 0

26.34 ГБ


Начать новую тему Ответить на тему  [ 1 сообщение ] 




Для Мосгорсуда, Роскомнадзора и рекламодателей:: rstracker[собака]yandex.ru
cron