COVID-19 - Последняя информация о коронавирусе на сайте Минздрава




Торрент файл
скачать торрент магнет ссылка Добавлен: 19 авг 2019, 14:52
Размер: 1.46 ГБ
Сидеров: 708
Личеров: 70
Статус: (salma3)
Автор

СообщениеДобавлено: 19 авг 2019, 14:52 

Не в сети
Супермодератор
Аватара пользователя
Дата регистрации:
15 фев 2012, 16:44
Возраст: 31
Спасибо: 8280 / 2148
Сообщения: 96711
Год выпуска: 2019
Жанр: Фантастика, триллер
Режиссер: Николас Хемфрис

В ролях: Джеймс Гэллэндерс, Дераг Кэмпбелл, Дэниэл Фазерс, Каролина Рейно, Алекс Вудс, Конима Паркинсон-Джонс, Taylor Thorne, Джон Новак, Джастин Джеймс Ремейкис

Описание:
Шестеро не знакомых друг с другом людей оказываются в странном месте. Они не помнят, как сюда попали. Их тела связаны и они не могут пошевелиться. При попытке освободиться натяжение нитей только усиливается. Становится понятно, что они находятся на объекте внеземного происхождения. Однако зачем они здесь и чего от них хотят? Поодиночке они умрут, но если объединятся, то у них есть шанс найти дорогу домой.



Страна: Канада
Продолжительность: 01:25:20
Перевод: Профессиональный (дублированный) | iTunes

Файл
Качество: BDRip
Видео: 720x304 (2.37:1), 23.976 fps, XviD build 73 ~2049 kbps avg, 0.39 bit/pixel
Аудио: 48 kHz, AC3 Dolby Digital, 3/2 (L,C,R,l,r) + LFE ch, ~384 kbps

Формат : AVI
Формат/Информация : Audio Video Interleave
Размер файла : 1,46 Гбайт
Продолжительность : 1 ч. 25 м.
Общий поток : 2442 Кбит/сек
Название фильма : Проект «Итака»_2019_BDRip
Программа кодирования : VirtualDubMod 1.5.10.3 | (build 2550/release)
Авторское право : порошков

Видео
Идентификатор : 0
Формат : MPEG-4 Visual
Профиль формата : Advanced Simple@L5
Настройки формата : BVOP1 / Custom Matrix
Параметр BVOP формата : 1
Параметр QPel формата : Нет
Параметр GMC формата : Без точки перехода
Параметр матрицы формата : Выборочная
Идентификатор кодека : XVID
Идентификатор кодека/Подсказка : XviD
Продолжительность : 1 ч. 25 м.
Битрейт : 2049 Кбит/сек
Ширина : 720 пикселей
Высота : 304 пикселя
Соотношение сторон : 2,35:1
Частота кадров : 23,976 (24000/1001) кадра/сек
Цветовое пространство : YUV
Субдискретизация насыщенности : 4:2:0
Битовая глубина : 8 бит
Тип развёртки : Прогрессивная
Метод сжатия : С потерями
Бит/(Пиксели*Кадры) : 0.390
Размер потока : 1,22 Гбайт (84%)
Библиотека кодирования : XviD 73

Аудио
Идентификатор : 1
Формат : AC-3
Формат/Информация : Audio Coding 3
Коммерческое название : Dolby Digital
Идентификатор кодека : 2000
Продолжительность : 1 ч. 25 м.
Вид битрейта : Постоянный
Битрейт : 384 Кбит/сек
Каналы : 6 каналов
ChannelLayout : L R C LFE Ls Rs
Частота : 48,0 КГц
Частота кадров : 31,250 кадров/сек (1536 SPF)
Битовая глубина : 16 бит
Метод сжатия : С потерями
Размер потока : 234 Мбайт (16%)
Выравнивание : Разделение по промежуткам
Продолжительность промежутка : 42 мс. (1,00 видеокадр)
Время предзагрузки промежутка : 500 мс.


_________________
Проголосуй за трекер Открытый торрент трекер - RUS-MEDIA.ORG

Проголосуй Открытый торрент трекер - RUS-MEDIA.ORG


Скачать книги и аудио книги через торрент


Вернуться к началу
 Профиль Отправить личное сообщение  
 
   Похожие торренты   Автор   Торрент   Размер 
В этой теме нет новых непрочитанных сообщений. Проект «Итака» / Project Ithaca [Фантастика, триллер, 2019] BDRip 720p, Dub [iTunes]

salma3

120 | 24

4.11 ГБ

В этой теме нет новых непрочитанных сообщений. Проект «Итака» / Project Ithaca [Фантастика, триллер, 2019] BDRip-HEVC 1080p, Dub [iTunes]

salma3

115 | 14

4.65 ГБ

В этой теме нет новых непрочитанных сообщений. Колосс: Проект Форбина / Colossus: The Forbin Project [фантастика, триллер, 1970] BDRip, Avo

salma3

0 | 0

1.45 ГБ

В этой теме нет новых непрочитанных сообщений. Проект засекречен / Проект "Синяя книга" / Project Blue Book [S01] [детектив, история, 2019] WEB-DLRip, Mvo [Jaskier]

salma3

0 | 0

5.23 ГБ

В этой теме нет новых непрочитанных сообщений. Проект засекречен / Проект "Синяя книга" / Project Blue Book [S01] [детектив, история, 2019] WEB-DL 1080p, Mvo [Jaskier]

salma3

0 | 0

18.92 ГБ

В этой теме нет новых непрочитанных сообщений. Мой научный проект / My Science Project [фантастика, боевик, комедия, 1985] BDRip-AVC, Mvo

salma3

0 | 0

2.18 ГБ

В этой теме нет новых непрочитанных сообщений. Колосс: Проект Форбина / Colossus: The Forbin Project [фантастика, триллер, 1970] Blu-ray 1080p, Avo

salma3

0 | 0

28.23 ГБ


Начать новую тему Ответить на тему  [ 1 сообщение ] 




Для Мосгорсуда, Роскомнадзора и рекламодателей:: rstracker[собака]yandex.ru
cron