COVID-19 - Последняя информация о коронавирусе на сайте Минздрава




Торрент файл
скачать торрент магнет ссылка Добавлен: 04 авг 2019, 10:57
Размер: 747.21 МБ
Сидеров: 0
Личеров: 0
Статус: (salma3)
Автор

СообщениеДобавлено: 04 авг 2019, 10:57 

Не в сети
Супермодератор
Аватара пользователя
Дата регистрации:
15 фев 2012, 16:44
Возраст: 30
Спасибо: 8262 / 2148
Сообщения: 96178
Год выхода: 1999
Жанр: Комедия, семейный
Режиссер: Фред Гербер

В ролях: Джадж Рейнхолд, Коди Джонс, Мелоди Джонсон, Джоэли Фишер, Тони Розато, Барри Флэтмен, Уэнди Льюм, Дебора Оделл, Джонатан Уиттакер, Мартин Дойл

О фильме:
Родители Джейсона и Селины целыми днями пропадают на работе. Дети не помнят, когда семья собиралась дома в полном составе. И когда глава семьи Пол объявляет, что нашел себе работу в Чикаго, Джейсон решает, что папа хочет развестись с мамой. Решив устроить отцу сюрприз, Джейсон и Селина тайком отправляются вслед за ним в Чикаго. Цель их секретной экспедиции — любой ценой сорвать деловую встречу отца с будущим боссом. Неистощимые на выдумки детишки добиваются своего. Прилетев в Чикаго, их любимый папочка попадает в самые дурацкие и смешные ситуации и, в конце концов, даже оказывается в городской тюрьме. Но, достигнув цели, дети узнают, что их родители и не думали разводиться. Теперь Джейсону и Селине придется постараться изо всех сил, чтобы спасти папину карьеру.



Страна: Канада
Продолжительность: 01:33:25
Перевод: Профессиональный (многоголосый закадровый) Екатеринбург Арт

Файл
Кодек: H.264
Качество: DVDRip-AVC
Видео: 706x536, 29.970 fps, 1 037 kb/s
Звук: AAC-HE, 2ch, 80kbps

General
Unique ID : 134447396551306433956582657898950360244 (0x6525A06F2B4D79FEFC676D2B1492FCB4)
Complete name : C:UsersПашаDownloadsСюрприз для папаши.mkv
Format : Matroska
Format version : Version 4
File size : 747 MiB
Duration : 1 h 33 min
Overall bit rate : 1 118 kb/s
Encoded date : UTC 2019-08-03 20:37:57
Writing application : mkvmerge v33.1.0 ('Primrose') 64-bit
Writing library : libebml v1.3.7 + libmatroska v1.5.0
Cover : Yes
Attachments : cover.jpg

Video
ID : 1
Format : AVC
Format/Info : Advanced Video Codec
Format profile : High@L4.1
Format settings : CABAC / 12 Ref Frames
Format settings, CABAC : Yes
Format settings, Reference : 12 frames
Codec ID : V_MPEG4/ISO/AVC
Duration : 1 h 33 min
Bit rate : 1 037 kb/s
Width : 706 pixels
Height : 536 pixels
Display aspect ratio : 4:3
Frame rate mode : Constant
Frame rate : 29.970 (30000/1001) FPS
Color space : YUV
Chroma subsampling : 4:2:0
Bit depth : 8 bits
Scan type : MBAFF
Scan type, store method : Interleaved fields
Scan order : Top Field First
Bits/(Pixel*Frame) : 0.091
Stream size : 693 MiB (93%)
Title : Rip by donadar
Writing library : x264 core 157 r2969 d4099dd
Encoding settings : cabac=1 / ref=12 / deblock=1:-1:-1 / analyse=0x3:0x133 / me=umh / subme=10 / psy=1 / psy_rd=1.00:0.13 / mixed_ref=1 / me_range=32 / chroma_me=1 / trellis=2 / 8x8dct=1 / cqm=0 / deadzone=21,11 / fast_pskip=0 / chroma_qp_offset=-3 / threads=8 / lookahead_threads=2 / sliced_threads=0 / nr=0 / decimate=0 / interlaced=tff / bluray_compat=0 / constrained_intra=0 / bframes=12 / b_pyramid=2 / b_adapt=2 / b_bias=0 / direct=3 / weightb=1 / open_gop=0 / weightp=0 / keyint=300 / keyint_min=29 / scenecut=40 / intra_refresh=0 / rc_lookahead=40 / rc=2pass / mbtree=1 / bitrate=1037 / ratetol=1.0 / qcomp=0.60 / qpmin=0 / qpmax=69 / qpstep=4 / cplxblur=20.0 / qblur=0.5 / ip_ratio=1.40 / aq=3:1.00
Language : English
Default : Yes
Forced : No
Color range : Limited
Color primaries : BT.601 PAL
Transfer characteristics : BT.470 System B/G
Matrix coefficients : BT.470 System B/G

Audio
ID : 2
Format : AAC LC SBR
Format/Info : Advanced Audio Codec Low Complexity with Spectral Band Replication
Commercial name : HE-AAC
Format settings : Explicit
Codec ID : A_AAC-2
Duration : 1 h 33 min
Bit rate : 78.7 kb/s
Channel(s) : 2 channels
Channel layout : L R
Sampling rate : 48.0 kHz
Frame rate : 23.438 FPS (2048 SPF)
Compression mode : Lossy
Stream size : 52.6 MiB (7%)
Language : Russian
Default : Yes
Forced : No

Menu
00:00:00.000 : :Глава 0
00:13:33.500 : :Глава 1
00:23:37.500 : :Глава 2
00:36:54.000 : :Глава 3
00:48:31.000 : :Глава 4
01:00:53.500 : :Глава 5
01:08:36.500 : :Глава 6
01:25:49.500 : :Глава 7
01:30:56.000 : :Глава 8


Релиз от: donadar


_________________
Проголосуй за трекер Открытый торрент трекер - RUS-MEDIA.ORG

Проголосуй Открытый торрент трекер - RUS-MEDIA.ORG


Скачать книги и аудио книги через торрент


Вернуться к началу
 Профиль Отправить личное сообщение  
 
   Похожие торренты   Автор   Торрент   Размер 
В этой теме нет новых непрочитанных сообщений. Сюрприз для папаши / Coming Unglued [комедия, семейный, 1999] DVDRip, Mvo

salma3

2 | 1

1.46 ГБ

В этой теме нет новых непрочитанных сообщений. Я не виноват! / C'est pas ma faute! [комедия, семейный, 1999] DVDRip-AVC, Mvo

salma3

0 | 0

1.94 ГБ

В этой теме нет новых непрочитанных сообщений. Паспорт в Париж / Passport to Paris [Комедия, семейный, 1999] DVDRip-AVC, Dub

salma3

7 | 2

2.12 ГБ

В этой теме нет новых непрочитанных сообщений. Алиса в Стране Чудес / Alice in Wonderland [Семейный, приключения, фэнтези, 1999] DVDRip-AVC, Mvo

salma3

12 | 3

2.77 ГБ

В этой теме нет новых непрочитанных сообщений. Няня / The Nanny [S01-06] [Комедия, Семейный, 1993-1999] DVDRip, Mvo [ДТВ]

salma3

7 | 6

35.29 ГБ

В этой теме нет новых непрочитанных сообщений. Железное небо 2: Грядущая раса / Iron Sky: The Coming Race [Фантастика, боевик, комедия, 2019] BDRip-AVC, Mvo

salma3

46 | 12

3.01 ГБ

В этой теме нет новых непрочитанных сообщений. Русские идут! Русские идут! / The Russians Are Coming, the Russians Are Coming [комедия, военный, 1966] BDRip, Mvo

salma3

0 | 0

2.19 ГБ


Начать новую тему Ответить на тему  [ 1 сообщение ] 




Для Мосгорсуда, Роскомнадзора и рекламодателей:: rstracker[собака]yandex.ru
cron