Торрент файл
скачать торрент магнет ссылка Добавлен: 01 авг 2019, 12:29
Размер: 2.1 ГБ
Сидеров: 26
Личеров: 7
Статус: (salma3)
Автор

СообщениеДобавлено: 01 авг 2019, 12:29 

Не в сети
Супермодератор
Аватара пользователя
Дата регистрации:
15 фев 2012, 16:44
Возраст: 32
Спасибо: 8320 / 2148
Сообщения: 97229
Год выхода: 1986
Жанр: комедия
Режиссер: Брайан Де Пальма

В ролях: Дэнни ДеВито, Джо Пископо, Харви Кейтель, Рэй Шарки, Дэн Хедайя, Лу Альбано, Джули Бовассо, Пэтти ЛюПон, Антония Рей, Мими Чеккини

О фильме:
Два закадычных друга, мафиозные «шестерки» Гарри и Мо, попадают в самые нелепые и неприятные ситуации, которые только можно представить. Лошадь, на которую они поставили деньги своего босса втайне от него, подвела двух авантюристов.

И теперь босс нанимает каждого из напарников, чтобы убить другого.



Страна: США
Продолжительность: 01:31:34
Перевод: Профессиональный (многоголосый, закадровый)
Субтитры: Английские

Файл
Формат: Matroska
Качество: DVDRip-AVC
Видео: 720=>852x480 at 23.976 fps, x264, ~2902 kbps
Аудио #1: AC3, 2 ch, ~192 kbps - | Русский | - MVO [Петербург 5 канал]
Аудио #2: AC3, 2 ch, ~192 kbps - | Русский | - MVO [НТВ+]
Формат субтитров: softsub (SRT)
***Релиз от: -=DoMiNo=-
x264 info: frame I:1013 Avg QP:18.95 size: 48054
x264 info: frame P:24689 Avg QP:19.61 size: 29236
x264 info: frame B:106032 Avg QP:21.93 size: 11531
x264 info: consecutive B-frames: 1.2% 0.9% 7.7% 2.9% 3.0% 81.9% 1.1% 0.2% 0.3% 0.2% 0.2% 0.2% 0.1%

General
Format : Matroska
Format version : Version 4
File size : 2.10 GiB
Duration : 1 h 31 min
Overall bit rate : 3 288 kb/s
Movie name : Мошенники / Умник ставит на себя / Умники / Wise Guys (1986)
Encoded date : UTC 2019-07-31 18:39:49
Writing application : mkvmerge v35.0.0 ('All The Love In The World') 64-bit
Writing library : libebml v1.3.9 + libmatroska v1.5.2
Attachments : poster / poster

Video
ID : 1
Format : AVC
Format/Info : Advanced Video Codec
Format profile : High@L4.1
Format settings : CABAC / 12 Ref Frames
Format settings, CABAC : Yes
Format settings, Reference : 12 frames
Codec ID : V_MPEG4/ISO/AVC
Duration : 1 h 31 min
Bit rate : 2 902 kb/s
Width : 720 pixels
Height : 480 pixels
Display aspect ratio : 16:9
Frame rate mode : Constant
Frame rate : 23.976 (24000/1001) FPS
Color space : YUV
Chroma subsampling : 4:2:0
Bit depth : 8 bits
Scan type : Progressive
Bits/(Pixel*Frame) : 0.350
Stream size : 1.86 GiB (88%)
Title : RIP_BY_-=DoMiNo=-
Writing library : x264 core 157 r2958 57baac4
Encoding settings : cabac=1 / ref=12 / deblock=1:-2:-2 / analyse=0x3:0x133 / me=umh / subme=11 / psy=1 / psy_rd=1.00:0.20 / mixed_ref=1 / me_range=48 / chroma_me=1 / trellis=2 / 8x8dct=1 / cqm=0 / deadzone=21,11 / fast_pskip=1 / chroma_qp_offset=-3 / threads=6 / lookahead_threads=1 / sliced_threads=0 / nr=0 / decimate=1 / interlaced=0 / bluray_compat=0 / constrained_intra=0 / bframes=12 / b_pyramid=2 / b_adapt=2 / b_bias=0 / direct=1 / weightb=1 / open_gop=0 / weightp=2 / keyint=240 / keyint_min=24 / scenecut=40 / intra_refresh=0 / rc_lookahead=60 / rc=crf / mbtree=0 / crf=18.0 / qcomp=0.70 / qpmin=0 / qpmax=69 / qpstep=4 / vbv_maxrate=50000 / vbv_bufsize=62500 / crf_max=0.0 / nal_hrd=none / filler=0 / ip_ratio=1.40 / pb_ratio=1.30 / aq=1:0.80
Language : English
Default : Yes
Forced : No
Color range : Limited

Audio #1
ID : 2
Format : AC-3
Format/Info : Audio Coding 3
Commercial name : Dolby Digital
Codec ID : A_AC3
Duration : 1 h 31 min
Bit rate mode : Constant
Bit rate : 192 kb/s
Channel(s) : 2 channels
Channel layout : L R
Sampling rate : 48.0 kHz
Frame rate : 31.250 FPS (1536 SPF)
Bit depth : 16 bits
Compression mode : Lossy
Stream size : 126 MiB (6%)
Title : MVO [Петербург 5 канал]
Language : Russian
Service kind : Complete Main
Default : Yes
Forced : No

Audio #2
ID : 3
Format : AC-3
Format/Info : Audio Coding 3
Commercial name : Dolby Digital
Codec ID : A_AC3
Duration : 1 h 31 min
Bit rate mode : Constant
Bit rate : 192 kb/s
Channel(s) : 2 channels
Channel layout : L R
Sampling rate : 48.0 kHz
Frame rate : 31.250 FPS (1536 SPF)
Bit depth : 16 bits
Compression mode : Lossy
Stream size : 126 MiB (6%)
Title : MVO [НТВ+]
Language : Russian
Service kind : Complete Main
Default : No
Forced : No

Text #1
ID : 4
Format : UTF-8
Codec ID : S_TEXT/UTF8
Codec ID/Info : UTF-8 Plain Text
Duration : 1 h 29 min
Bit rate : 72 b/s
Count of elements : 1152
Stream size : 47.5 KiB (0%)
Title : ENG
Language : English
Default : No
Forced : No

Text #2
ID : 5
Format : UTF-8
Codec ID : S_TEXT/UTF8
Codec ID/Info : UTF-8 Plain Text
Duration : 1 h 27 min
Bit rate : 74 b/s
Count of elements : 1151
Stream size : 47.5 KiB (0%)
Title : ENG_v2
Language : English
Default : No
Forced : No

Menu
00:00:00.000 : :Глава 0
00:00:56.500 : :Глава 1
00:05:40.000 : :Глава 2
00:14:31.367 : :Глава 3
00:16:32.167 : :Глава 4
00:19:08.034 : :Глава 5
00:23:01.001 : :Глава 6
00:26:49.167 : :Глава 7
00:30:30.534 : :Глава 8
00:34:45.001 : :Глава 9
00:42:27.501 : :Глава 10
00:47:33.834 : :Глава 11
00:52:57.534 : :Глава 12
00:59:09.700 : :Глава 13
01:04:29.500 : :Глава 14
01:10:15.334 : :Глава 15
01:14:38.500 : :Глава 16
01:19:29.533 : :Глава 17
01:22:52.666 : :Глава 18
01:28:33.699 : :Глава 19


_________________
Проголосуй за трекер Открытый торрент трекер - RUS-MEDIA.ORG

Проголосуй Открытый торрент трекер - RUS-MEDIA.ORG


Вернуться к началу
 Профиль Отправить личное сообщение  
 
   Похожие торренты   Автор   Торрент   Размер 
В этой теме нет новых непрочитанных сообщений. Золотой ребенок / The Golden Child [фэнтези, боевик, комедия, 1986] WEB-DLRip-AVC, Mvo

salma3

4 | 0

744.09 МБ

В этой теме нет новых непрочитанных сообщений. Славные парни / The Nice Guys [Криминал, комедия, боевик, 2016] BDRip-AVC, Dub | Лицензия

NTL

4 | 0

2.11 ГБ

В этой теме нет новых непрочитанных сообщений. Копы в глубоком запасе / The Other Guys [боевик, комедия, криминал, 2010] BDRip-AVC, Dub [Theatrical cut]

salma3

2 | 1

2.18 ГБ

В этой теме нет новых непрочитанных сообщений. Дьявольский смех / Evil Laugh (Доминик Брашиа) [1986 г., Ужасы, триллер, комедия, детектив, DVDRip-AVC] P

zorgi

0 | 0

2.05 ГБ

В этой теме нет новых непрочитанных сообщений. Преступления сердца / Crimes of the Heart [драма, комедия, 1986] DVDRip, Mvo

salma3

0 | 0

1.46 ГБ

В этой теме нет новых непрочитанных сообщений. Wise Registry Cleaner 10.2.3.683 / Wise Disk Cleaner 10.2.1.772 (2019) PC | + Portable

salma3

0 | 0

15.3 МБ

В этой теме нет новых непрочитанных сообщений. Wise Registry Cleaner 10.2.6.686 / Wise Disk Cleaner 10.2.6.777 (2019) PC | + Portable

salma3

0 | 0

15.31 МБ


Начать новую тему Ответить на тему  [ 1 сообщение ] 




Для Мосгорсуда, Роскомнадзора и рекламодателей:: rstracker[собака]yandex.ru
cron