COVID-19 - Последняя информация о коронавирусе на сайте Минздрава




Торрент файл
скачать торрент магнет ссылка Добавлен: 28 июл 2019, 16:32
Размер: 745.29 МБ
Сидеров: 1
Личеров: 2
Статус: (salma3)
Автор

СообщениеДобавлено: 28 июл 2019, 16:32 

Не в сети
Супермодератор
Аватара пользователя
Дата регистрации:
15 фев 2012, 16:44
Возраст: 32
Спасибо: 8311 / 2148
Сообщения: 97175
Год выхода: 2007
Жанр: Мелодрама, комедия
Режиссер: Скотт Маршалл

В ролях: Джессика Симпсон, Дрю Фуллер, Рэйчел Ли Кук, Люк Уилсон, Джон Т. Биллингсли

О фильме:
Девушка из маленького городка приезжает в Нью-Йорк, чтобы обрадовать и удивить своего жениха и застает его в постели с другой. Предпочитая возврату домой и встрече со своими родными и друзьями работу в мегаполисе, она устраивается в крупную компанию и неожиданно обнаруживает себя в разгаре корпоративной войны, когда женщина пытается отобрать контроль над компанией у своего бывшего мужа.



Страна: США
Продолжительность: 01:32:35
Перевод: Профессиональный (многоголосый, закадровый) «Top Film Distribution»

Файл
Кодек: H.264
Качество: HDRip-AVC
Видео: 774x416, 23.976 fps, 1 045 kb/s
Звук: AAC-HE, 2ch, 80kbps

General
Unique ID : 129430739561854787754693520195507887751 (0x615F7425FCAE6FA751B0B8A22A369E87)
Complete name : C:UsersПашаDownloadsБлондинка с амбициями.mkv
Format : Matroska
Format version : Version 4
File size : 745 MiB
Duration : 1 h 32 min
Overall bit rate : 1 125 kb/s
Encoded date : UTC 2019-07-28 09:17:16
Writing application : mkvmerge v33.1.0 ('Primrose') 64-bit
Writing library : libebml v1.3.7 + libmatroska v1.5.0
Cover : Yes
Attachments : cover.jpg

Video
ID : 1
Format : AVC
Format/Info : Advanced Video Codec
Format profile : High@L4.1
Format settings : CABAC / 12 Ref Frames
Format settings, CABAC : Yes
Format settings, Reference : 12 frames
Codec ID : V_MPEG4/ISO/AVC
Duration : 1 h 32 min
Bit rate : 1 045 kb/s
Width : 774 pixels
Height : 416 pixels
Display aspect ratio : 1.85:1
Frame rate mode : Constant
Frame rate : 23.976 (24000/1001) FPS
Color space : YUV
Chroma subsampling : 4:2:0
Bit depth : 8 bits
Scan type : Progressive
Bits/(Pixel*Frame) : 0.135
Stream size : 692 MiB (93%)
Title : Rip by donadar
Writing library : x264 core 157 r2969 d4099dd
Encoding settings : cabac=1 / ref=12 / deblock=1:-1:-1 / analyse=0x3:0x133 / me=umh / subme=10 / psy=1 / psy_rd=1.00:0.15 / mixed_ref=1 / me_range=32 / chroma_me=1 / trellis=2 / 8x8dct=1 / cqm=0 / deadzone=21,11 / fast_pskip=0 / chroma_qp_offset=-3 / threads=8 / lookahead_threads=2 / sliced_threads=0 / nr=0 / decimate=0 / interlaced=0 / bluray_compat=0 / constrained_intra=0 / bframes=12 / b_pyramid=2 / b_adapt=2 / b_bias=0 / direct=3 / weightb=1 / open_gop=0 / weightp=2 / keyint=240 / keyint_min=23 / scenecut=40 / intra_refresh=0 / rc_lookahead=40 / rc=2pass / mbtree=1 / bitrate=1045 / ratetol=1.0 / qcomp=0.60 / qpmin=0 / qpmax=69 / qpstep=4 / cplxblur=20.0 / qblur=0.5 / ip_ratio=1.40 / aq=3:1.00
Language : English
Default : Yes
Forced : No

Audio
ID : 2
Format : AAC LC SBR
Format/Info : Advanced Audio Codec Low Complexity with Spectral Band Replication
Commercial name : HE-AAC
Format settings : Explicit
Codec ID : A_AAC-2
Duration : 1 h 32 min
Bit rate : 78.7 kb/s
Channel(s) : 2 channels
Channel layout : L R
Sampling rate : 48.0 kHz
Frame rate : 23.438 FPS (2048 SPF)
Compression mode : Lossy
Stream size : 52.1 MiB (7%)
Language : Russian
Default : Yes
Forced : No


Релиз от: donadar


_________________
Проголосуй за трекер Открытый торрент трекер - RUS-MEDIA.ORG

Проголосуй Открытый торрент трекер - RUS-MEDIA.ORG


Скачать книги и аудио книги через торрент


Вернуться к началу
 Профиль Отправить личное сообщение  
 
   Похожие торренты   Автор   Торрент   Размер 
В этой теме нет новых непрочитанных сообщений. Выходные! / R.T.T. [Комедия, приключения, мелодрама, 2009] HDRip-AVC, Mvo

salma3

0 | 0

745.75 МБ

В этой теме нет новых непрочитанных сообщений. Бетховен 2 / Beethoven's 2nd [мелодрама, комедия, семейный, 1993] HDRip-AVC, Mvo

salma3

0 | 0

744.3 МБ

В этой теме нет новых непрочитанных сообщений. Исповедь невидимки / Memoirs Of An Invisible Man [Фантастика, триллер, мелодрама, комедия, 1992] HDRip-AVC, Mvo

K15

0 | 35

745.15 МБ

В этой теме нет новых непрочитанных сообщений. Джуно / Juno [Драма, мелодрама, комедия, 2007] BDRip-AVC, Dub

salma3

0 | 0

744.81 МБ

В этой теме нет новых непрочитанных сообщений. Амбиции брюнеток / Brunette Ambition (2009) DVDRip

zorgi

84 | 22

2.98 ГБ

В этой теме нет новых непрочитанных сообщений. [PornHub.com] EllisLips - Сисястая блондинка принимает хер в попку / Big Tit Blonde Get a Huge Cock In Anal [2019 г., Amateur, Hardcore, Anal, Big Tits, Blonde, POV, Fingering, Cum on Pussy, Russian, CAMRip 1080p]

Svoyak

11 | 0

501.41 МБ

В этой теме нет новых непрочитанных сообщений. Инферно / Inferno [боевик, драма, мелодрама, 1999] HDRip-AVC, Mvo

salma3

0 | 0

744.36 МБ


Начать новую тему Ответить на тему  [ 1 сообщение ] 




Для Мосгорсуда, Роскомнадзора и рекламодателей:: rstracker[собака]yandex.ru
cron