Торрент файл
скачать торрент магнет ссылка Добавлен: 13 июл 2019, 12:58
Размер: 4.44 ГБ
Сидеров: 0
Личеров: 0
Статус: (salma3)
Автор

СообщениеДобавлено: 13 июл 2019, 12:58 

Не в сети
Супермодератор
Аватара пользователя
Дата регистрации:
15 фев 2012, 16:44
Возраст: 32
Спасибо: 8320 / 2148
Сообщения: 97229
Год выхода: 2004
Жанр: Фэнтези, боевик, триллер
Режиссер: Стивен Соммерс

В ролях: Хью Джекман, Кейт Бекинсейл, Ричард Роксбург, Дэвид Уэнэм, Шулер Хенсли, Елена Анайя, Уилл Кемп, Кевин Дж. О’Коннор, Алан Армстронг, Сильвия Коллока, Джози Мэран, Том Фишер, Сэмьюэл Уэст, Робби Колтрейн, Стивен Фишер, Дэна Маравкова, Зузана Дурдинова, Ярослав Визнер, Марек Вашут, Саманта Соммерс, Дорел Моис, Марианна Моис, Лоуренс Расин, Патрис Войцеховский, Каси Борроумэн, Райан Джеймс, Мартин Клеббэ, Эллисон Квил

О фильме:
Глубоко в Карпатах лежит таинственная страна Трансильвания — мир, в котором зло встречается на каждом шагу, мир, в котором опасность оживает с заходом солнца, и где монстры, живущие в глубине человеческих кошмаров, обретают форму. В этот мир попадает легендарный охотник на чудовищ Ван Хельсинг, рождённый на страницах романа «Дракула» Брэма Стокера. В своей непрерывной битве против сил зла и за освобождение мира от порождений ада, Ван Хельсинг, по заданию секретного общества, отправляется в Трансильванию, чтобы скрестить оружие со смертельно опасным, наделённым неведомой силой графом Дракулой. На помощь ему внезапно приходит бесстрашная Анна Валери, поставившая целью избавить свою семью от векового проклятья, наложенного убитым вампиром.



Страна: США, Чехия
Продолжительность: 02:11:40
Перевод: Дублированный (МОСФИЛЬМ-мастер)
Субтитры: Russian (Forced), Russian (Full)

Файл
Формат: Matroska
Качество: WEB-DLRip-AVC
Видео: 1138x640 at 23.976 fps, x264, ~4284 kbps
Аудио: AC3, 6 ch, ~448 kbps - | Русский | -
Формат субтитров: softsub (SRT)

***Релиз от: -=DoMiNo=-



Исходник видео WEB-DL Amazon CINEMAX.
Данная версия фильма имеет большее наполнение кадра по сравнению с Blu-ray. За исходник спасибо maksnew.
Написаны заново форсированные русские, украинские и английские субтитры на надписи (данный видеоряд очищен от вшитых английских надписей) и фразы на латыни.

СРАВНЕНИЯ => BLU-RAY*****vs*****WEB-DL | Open Matte
x264 info: frame I:1503 Avg QP:17.90 size: 76015
x264 info: frame P:44353 Avg QP:18.67 size: 37676
x264 info: frame B:143549 Avg QP:20.15 size: 17666
x264 info: consecutive B-frames: 3.1% 3.7% 8.9% 25.8% 18.4% 27.6% 5.1% 4.9% 2.0% 0.3% 0.3%

General
Unique ID : 89262670472314778831300363785491140828 (0x43275D707FF065191CCE376B2B7350DC)
Complete name : Ван Хельсинг.(2004).WEB-DLRip-AVC.O.M.[-=DoMiNo=-].mkv
Format : Matroska
Format version : Version 4
File size : 4.44 GiB
Duration : 2 h 11 min
Overall bit rate : 4 828 kb/s
Movie name : Ван Хельсинг
Deion : Глубоко в Карпатах лежит таинственная страна Трансильвания — мир, в котором зло встречается на каждом шагу, мир, в котором опасность оживает с заходом солнца, и где монстры, живущие в глубине человеческих кошмаров, обретают форму. В этот мир попадает легендарный охотник на чудовищ Ван Хельсинг, рождённый на страницах романа «Дракула» Брэма Стокера.
Attachments : poster / poster
ACTORS : Hugh Jackman, Kate Beckinsale, Richard Roxburgh, David Wenham, Shuler Hensley, Elena Anaya, Will Kemp, Kevin J. O'Connor, Alun Armstrong, Silvia Colloca, Josie Maran, Tom Fisher, Samuel West, Robbie Coltrane, Stephen Fisher
DIRECTOR : Stephen Sommers
GENRE : Ужасы, Приключения, Боевик
ORIGINAL_TITLE : Van Helsing

Video
ID : 1
Format : AVC
Format/Info : Advanced Video Codec
Format profile : High@L4.1
Format settings : CABAC / 10 Ref Frames
Format settings, CABAC : Yes
Format settings, Reference : 10 frames
Codec ID : V_MPEG4/ISO/AVC
Duration : 2 h 11 min
Bit rate : 4 284 kb/s
Width : 1 138 pixels
Height : 640 pixels
Display aspect ratio : 16:9
Frame rate mode : Constant
Frame rate : 23.976 (24000/1001) FPS
Color space : YUV
Chroma subsampling : 4:2:0
Bit depth : 8 bits
Scan type : Progressive
Bits/(Pixel*Frame) : 0.245
Stream size : 3.94 GiB (89%)
Title : RIP_BY_-=DoMiNo=-
Writing library : x264 core 157 r2969 d4099dd
Encoding settings : cabac=1 / ref=10 / deblock=1:-2:-2 / analyse=0x3:0x133 / me=umh / subme=11 / psy=1 / psy_rd=1.00:0.10 / mixed_ref=1 / me_range=32 / chroma_me=1 / trellis=2 / 8x8dct=1 / cqm=0 / deadzone=21,11 / fast_pskip=1 / chroma_qp_offset=-3 / threads=6 / lookahead_threads=1 / sliced_threads=0 / nr=0 / decimate=1 / interlaced=0 / bluray_compat=0 / constrained_intra=0 / bframes=10 / b_pyramid=2 / b_adapt=2 / b_bias=0 / direct=3 / weightb=1 / open_gop=0 / weightp=2 / keyint=240 / keyint_min=24 / scenecut=40 / intra_refresh=0 / rc=crf / mbtree=0 / crf=19.0 / qcomp=0.80 / qpmin=16 / qpmax=69 / qpstep=4 / ip_ratio=1.40 / pb_ratio=1.30 / aq=3:0.90
Language : English
Default : Yes
Forced : No
Color range : Limited
Color primaries : BT.709
Transfer characteristics : BT.709
Matrix coefficients : BT.709

Audio
ID : 2
Format : AC-3
Format/Info : Audio Coding 3
Commercial name : Dolby Digital
Codec ID : A_AC3
Duration : 2 h 11 min
Bit rate mode : Constant
Bit rate : 448 kb/s
Channel(s) : 6 channels
Channel layout : L R C LFE Ls Rs
Sampling rate : 48.0 kHz
Frame rate : 31.250 FPS (1536 SPF)
Bit depth : 16 bits
Compression mode : Lossy
Stream size : 422 MiB (9%)
Title : DUB - R5 "Мосфильм Мастер"
Language : Russian
Service kind : Complete Main
Default : Yes
Forced : No

Text #1
ID : 3
Format : UTF-8
Codec ID : S_TEXT/UTF8
Codec ID/Info : UTF-8 Plain Text
Title : Russian Forced
Language : Russian
Default : Yes
Forced : Yes

Text #2
ID : 4
Format : UTF-8
Codec ID : S_TEXT/UTF8
Codec ID/Info : UTF-8 Plain Text
Title : Russian Full
Language : Russian
Default : No
Forced : No

Menu
00:00:00.000 : :Глава 1
00:07:42.045 : :Глава 2
00:17:12.490 : :Глава 3
00:31:13.372 : :Глава 4
00:46:27.159 : :Глава 5
01:02:40.452 : :Глава 6
01:18:51.547 : :Глава 7
01:33:25.671 : :Глава 8
01:48:17.520 : :Глава 9
02:02:02.120 : :Глава 10




_________________
Проголосуй за трекер Открытый торрент трекер - RUS-MEDIA.ORG

Проголосуй Открытый торрент трекер - RUS-MEDIA.ORG


Вернуться к началу
 Профиль Отправить личное сообщение  
 
   Похожие торренты   Автор   Торрент   Размер 
В этой теме нет новых непрочитанных сообщений. Ван Хельсинг / Van Helsing [Фэнтези, боевик, триллер, 2004] WEB-DL 1080p, Dub [Open Matte]

salma3

0 | 0

11.6 ГБ

В этой теме нет новых непрочитанных сообщений. Ван Хельсинг / Van Helsing [Фэнтези, боевик, приключения, 2004] WEB-DLRip-720, 2Dub [Open Matte]

salma3

0 | 0

5.09 ГБ

В этой теме нет новых непрочитанных сообщений. Гнев / Man on Fire [Боевик, криминал, триллер, драма, 2004] WEB-DLRip-AVC, Dub | [Open Matte]

NTL

0 | 0

1.09 ГБ

В этой теме нет новых непрочитанных сообщений. Расплата / Payback [Боевик, триллер, 1999] WEB-DLRip-AVC, Dub [Open Matte]

salma3

0 | 0

2.47 ГБ

В этой теме нет новых непрочитанных сообщений. Вирус / Virus [фантастика, боевик, триллер, 1999] WEB-DLRip-AVC, Dub [Open Matte]

salma3

0 | 0

2.46 ГБ

В этой теме нет новых непрочитанных сообщений. Суррогаты / Surrogates [Фантастика, боевик, триллер, 2009] WEB-DLRip-AVC, Dub [Open Matte]

salma3

0 | 0

2.29 ГБ

В этой теме нет новых непрочитанных сообщений. Формула 51 / The 51st State [Боевик, триллер, комедия, 2001] WEB-DLRip-AVC, Dub [Open Matte]

salma3

0 | 0

2.64 ГБ


Начать новую тему Ответить на тему  [ 1 сообщение ] 




Для Мосгорсуда, Роскомнадзора и рекламодателей:: rstracker[собака]yandex.ru
cron