Торрент файл
скачать торрент магнет ссылка Добавлен: 10 июл 2019, 21:05
Размер: 1.94 ГБ
Сидеров: 0
Личеров: 0
Статус: (salma3)
Автор

СообщениеДобавлено: 10 июл 2019, 21:05 

Не в сети
Супермодератор
Аватара пользователя
Дата регистрации:
15 фев 2012, 16:44
Возраст: 30
Спасибо: 8112 / 2147
Сообщения: 93395
Год выхода: 1999
Жанр: комедия, семейный
Режиссер: Жак Монне

В ролях: Готье Куснирек, Тьерри Лермитт, Ариель Домбаль, Мартен Ламотт, Жак Перрен, Гэбриэлль Форест, Патрик Гиллемин, Джулия Демон, Евгения Гендрон, Джером Хардлэй, Джулиан Гутиеррез

О фильме:
Одиннадцатилетний Мартин - совсем неплохой парень, но всякий раз, когда он что-то задумывает, дело заканчивается плачевно. На летние каникулы родители его друга Винсента приглашают Мартина отдохнуть в гостинице «Наутилус», неподалёку от которого растёт 300-летний «баобаб» с комнаткой, скрытой среди ветвей дерева. Но в этом году неподалеку расположился детский лагерь. Кое-кто из «пионеров» возжелал экспроприировать «баобаб». Война объявлена…



Производство: Франция / ICE3, TF1 Films Production, TPS Cinéma
Продолжительность: 01:29:36
Перевод: профессиональный многоголосый закадровый

Файл
Качество: DVDRip-AVC
Формат: MKV
Видео: MPEG-4 AVC, 1024x552 (1.85:1), 25.000 fps, 2140 kbps, 0.151 bit/pixel
Аудио #1: русский, AC3 2.0, 48 kHz, 448 kbps
Аудио #2: французский, AC3 2.0, 48 kHz, 448 kbps
Субтитры: английские вшитые отключаемые



Общее
Уникальный идентификатор : 180541173891292414204200266594294546549 (0x87D2F71DD949F23E9F5E3045D3BDC075)
Полное имя : C'est.Pas.Ma.Faute!1999.DVDRip.mkv
Формат : Matroska
Версия формата : Version 4
Размер файла : 1,94 Гбайт
Продолжительность : 1 ч. 29 м.
Общий поток : 3098 Кбит/сек
Дата кодирования : UTC 2019-07-08 12:13:12
Программа кодирования : mkvmerge v7.9.0 ('Birds') 64bit
Библиотека кодирования : libebml v1.3.1 + libmatroska v1.4.2 / Lavf58.20.100

Видео
Идентификатор : 1
Формат : AVC
Формат/Информация : Advanced Video Codec
Профиль формата : High@L4.1
Настройки формата : CABAC / 7 Ref Frames
Параметр CABAC формата : Да
Параметр RefFrames формата : 7 кадров
Идентификатор кодека : V_MPEG4/ISO/AVC
Продолжительность : 1 ч. 41 м.
Битрейт : 2140 Кбит/сек
Ширина : 1024 пикселя
Высота : 552 пикселя
Соотношение сторон : 1,85:1
Режим частоты кадров : Постоянный
Частота кадров : 25,000 кадров/сек
Цветовое пространство : YUV
Субдискретизация насыщенности : 4:2:0
Битовая глубина : 8 бит
Тип развёртки : Прогрессивная
Бит/(Пиксели*Кадры) : 0.151
Размер потока : 1,52 Гбайт (79%)
Default : Да
Forced : Нет
Цветовой диапазон : Limited
Основные цвета : BT.601 PAL
Характеристики трансфера : BT.709
Коэффициенты матрицы : BT.601

Аудио #1
Идентификатор : 2
Формат : AC-3
Формат/Информация : Audio Coding 3
Коммерческое название : Dolby Digital
Идентификатор кодека : A_AC3
Продолжительность : 1 ч. 41 м.
Вид битрейта : Постоянный
Битрейт : 448 Кбит/сек
Каналы : 2 канала
ChannelLayout : L R
Частота : 48,0 КГц
Частота кадров : 31,250 кадров/сек (1536 SPF)
Битовая глубина : 16 бит
Метод сжатия : С потерями
Задержка видео : 27 мс.
Размер потока : 327 Мбайт (16%)
Язык : Russian
ServiceKind : Complete Main
Default : Да
Forced : Нет

Аудио #2
Идентификатор : 3
Формат : AC-3
Формат/Информация : Audio Coding 3
Коммерческое название : Dolby Digital
Идентификатор кодека : A_AC3
Продолжительность : 1 ч. 41 м.
Вид битрейта : Постоянный
Битрейт : 448 Кбит/сек
Каналы : 2 канала
ChannelLayout : L R
Частота : 48,0 КГц
Частота кадров : 31,250 кадров/сек (1536 SPF)
Битовая глубина : 16 бит
Метод сжатия : С потерями
Задержка видео : 403 мс.
Размер потока : 327 Мбайт (16%)
Язык : French
ServiceKind : Complete Main
Default : Нет
Forced : Нет

Текст
Идентификатор : 4
Формат : UTF-8
Идентификатор кодека : S_TEXT/UTF8
Идентификатор кодека/Информация : UTF-8 Plain Text
Язык : English
Default : Да
Forced : Нет


_________________
Проголосуй за трекер Открытый торрент трекер - RUS-MEDIA.ORG

Проголосуй Открытый торрент трекер - RUS-MEDIA.ORG


Книжный торрент трекер



Вернуться к началу
 Профиль Отправить личное сообщение  
 
   Похожие торренты   Автор   Торрент   Размер 
В этой теме нет новых непрочитанных сообщений. Венеция зовет / Venise n'est pas en Italie [комедия, драма, 2019] WEBDLRip, MVO

K15

24 | 1

1.37 ГБ

В этой теме нет новых непрочитанных сообщений. В хлам / Smashed [драма, комедия, 2012] HDRip-AVC, Mvo

salma3

11 | 4

744.51 МБ

В этой теме нет новых непрочитанных сообщений. Сабина / Prendimi l'anima [драма, мелодрама, биография, 2002] DVDRip-AVC, Mvo

salma3

0 | 0

2.05 ГБ

В этой теме нет новых непрочитанных сообщений. Ода к радости / Ode to Joy [Комедия, 2019] WEB-DLRip-AVC, Mvo [iTunes]

salma3

79 | 39

744.72 МБ

В этой теме нет новых непрочитанных сообщений. Вторжение на Землю / Terminal Invasion [фантастика, боевик, триллер, 2002] DVDRip-AVC, Mvo

salma3

0 | 0

1.83 ГБ

В этой теме нет новых непрочитанных сообщений. Тьма / The Dark [ужасы, драма, 2018] HDRip-AVC, MVO

K15

2 | 0

1.46 ГБ

В этой теме нет новых непрочитанных сообщений. Спроси у пыли / Ask the Dust [драма, мелодрама, 2006] BDRip-AVC, Mvo

K15

1 | 2

745.94 МБ


Начать новую тему Ответить на тему  [ 1 сообщение ] 




Для Мосгорсуда, Роскомнадзора и рекламодателей:: mosgorsud-torrent[собачка]yandex.ru
cron