COVID-19 - Последняя информация о коронавирусе на сайте Минздрава




Торрент файл
скачать торрент магнет ссылка Добавлен: 28 июн 2019, 11:39
Размер: 156.31 МБ
Сидеров: 4
Личеров: 1
Статус: (salma3)
Автор

СообщениеДобавлено: 28 июн 2019, 11:39 

Информация о фильме
Название: Письмо / Визит домой
Оригинальное название: Dopis / House call
Год выхода: 2017
Жанр: драма, гей-тема, короткометражный
Режиссер: Мансур К. Рашид / Mansur K. Rashid
В ролях: Патрик Плесингер (учитель), Михаэль Гольдшмидт (Давид), Клара Цибулкова (жена), Томаш Граба (сын)

О фильме:
Школьный учитель пан Хорничек недавно развёлся с женой. Но интимной близости хочется. Поэтому он снимает в парке парня-проститута Давида, который, как оказывается, был когда-то его учеником...



Рекламы нет

Страна: Чехия
Продолжительность: 00:09:55
Перевод: Любительский одноголосый закадровый - Анатолий Ашмарин

Файл
Качество: WEB-DLRip
Формат: AVI
Видео: XviD; 720x400 (16:9); 25 кадров/сек; 2000 Кбит/сек
Звук: AC3; 48 КГц; 192 Кбит/сек; 2 канала; L1 (Русский, Ашмарин)
Субтитры: английские неотключаемые

Семпл

Общее
Формат : AVI
Формат/Информация : Audio Video Interleave
Размер файла : 156 Мбайт
Продолжительность : 9 м. 55 с.
Общий поток : 2202 Кбит/сек
Программа кодирования : VirtualDubMod 1.5.10.3 | http://www.virtualdub-fr.org || (build 2550/release)
Библиотека кодирования : VirtualDubMod build 2550/release

Видео
Идентификатор : 0
Формат : MPEG-4 Visual
Профиль формата : Advanced Simple@L5
Настройки формата : BVOP2 / Custom Matrix
Параметр BVOP формата : 2
Параметр QPel формата : Нет
Параметр GMC формата : Без точки перехода
Параметр матрицы формата : Выборочная
Идентификатор кодека : XVID
Идентификатор кодека/Подсказка : XviD
Продолжительность : 9 м. 55 с.
Битрейт : 2000 Кбит/сек
Ширина : 720 пикселей
Высота : 400 пикселей
Соотношение сторон : 16:9
Частота кадров : 25,000 кадров/сек
Цветовое пространство : YUV
Субдискретизация насыщенности : 4:2:0
Битовая глубина : 8 бит
Тип развёртки : Прогрессивная
Метод сжатия : С потерями
Бит/(Пиксели*Кадры) : 0.278
Размер потока : 142 Мбайт (91%)
Библиотека кодирования : XviD 73

Аудио
Идентификатор : 1
Формат : AC-3
Формат/Информация : Audio Coding 3
Идентификатор кодека : 2000
Продолжительность : 9 м. 55 с.
Вид битрейта : Постоянный
Битрейт : 192 Кбит/сек
Каналы : 2 канала
Расположение каналов : Front: L R
Частота : 48,0 КГц
Частота кадров : 31,250 кадров/сек (1536 SPF)
Битовая глубина : 16 бит
Метод сжатия : С потерями
Размер потока : 13,6 Мбайт (9%)
Выравнивание : Разделение по промежуткам
Продолжительность промежутка : 40 мс. (1,00 видеокадр)
Время предзагрузки промежутка : 500 мс.
ServiceKind/Strin : Complete Main



Скачать книги и аудио книги через торрент


Вернуться к началу
  
 
   Похожие торренты   Автор   Торрент   Размер 
В этой теме нет новых непрочитанных сообщений. Перед падением / Перед грехопадением / До осени / Before the Fall [драма, мелодрама, гей-тема, 2016] HDRip-AVC, Mvo

K15

17 | 5

741.14 МБ

В этой теме нет новых непрочитанных сообщений. Письмо по ошибке [01-04 из 04] [Мелодрама, 2018] WEB-DLRip

salma3

4 | 1

2.17 ГБ

В этой теме нет новых непрочитанных сообщений. Визит инспектора / An Inspector Calls [Триллер, драма, криминал, 2015] WEB-DL 1080p, Mvo

salma3

0 | 0

6.47 ГБ

В этой теме нет новых непрочитанных сообщений. Дом, который построил Джек / The House That Jack Built [Ужасы, триллер, драма, 2018] WEB-DLRip, Avo

salma3

1 | 0

2.18 ГБ

В этой теме нет новых непрочитанных сообщений. Зов предков / The Call of the Wild [Драма, приключения, семейный, 2020] WEB-DLRip, Dub [iTunes]

salma3

0 | 0

1.46 ГБ

В этой теме нет новых непрочитанных сообщений. Скрывающийся в доме / Hider in the House [триллер, 1989] WEB-DLRip, Avo

salma3

0 | 0

2.06 ГБ

В этой теме нет новых непрочитанных сообщений. Скрывающийся в доме / Hider in the House [триллер, 1989] WEB-DLRip-AVC, Avo

salma3

0 | 0

3.34 ГБ


Начать новую тему Ответить на тему  [ 1 сообщение ] 




Для Мосгорсуда, Роскомнадзора и рекламодателей:: rstracker[собака]yandex.ru
cron