COVID-19 - Последняя информация о коронавирусе на сайте Минздрава




Торрент файл
скачать торрент магнет ссылка Добавлен: 26 июн 2019, 11:27
Размер: 1.46 ГБ
Сидеров: 0
Личеров: 1
Статус: (salma3)
Автор

СообщениеДобавлено: 26 июн 2019, 11:27 

Не в сети
Супермодератор
Аватара пользователя
Дата регистрации:
15 фев 2012, 16:44
Возраст: 32
Спасибо: 8298 / 2148
Сообщения: 97035
Год выпуска: 2019
Жанр: драма, биография, история
Режиссер: Робин Бисселл

В ролях: Тараджи П. Хенсон, Сэм Рокуэлл, Бабу Сизей, Ник Сирси, Уэс Бентли, Энн Хеч, Брюс МакГилл, Джон Галлахер мл., Ник Ковальчук

Описание: История о невероятной дружбе между чернокожей правозащитницей Энн Атуотер и членом Ку-клукс-клана Клэйборном Эллисом. Они были ожесточёнными противниками, пока не попали в один комитет по решению расового разделения в школе. Давних врагов объединяет забота о будущем своих детей...



Страна: США
Продолжительность: 02:13:23
Перевод: Профессиональный (многоголосый, закадровый)[HDRezka, Studio]

Качество: WEB-DLRip
Видео: 720x304 (2.35:1), 23.976 fps, XviD build 73 ~1 364 kbps avg
Аудио: 48.0 kHz, AC3 Dolby Digital, 2/0 (L,R) ch, ~192 kbps
Субтитры: русские (forced) / отдельным файлом
Формат субтитров: *SRT



General
Формат : AVI
Формат/Информация : Audio Video Interleave
Размер файла : 1,46 Гбайт
Продолжительность : 2 ч. 13 м.
Общий поток : 1565 Кбит/сек
Название фильма : Лучшие враги_2019_WEB-DLRip
Программа кодирования : VirtualDubMod 1.5.10.3 | (build 2550/release)
Авторское право : порошков

Видео
Идентификатор : 0
Формат : MPEG-4 Visual
Профиль формата : Advanced Simple@L5
Настройки формата : BVOP1 / Custom Matrix
Параметр BVOP формата : 1
Параметр QPel формата : Нет
Параметр GMC формата : Без точки перехода
Параметр матрицы формата : Выборочная
Идентификатор кодека : XVID
Идентификатор кодека/Подсказка : XviD
Продолжительность : 2 ч. 13 м.
Битрейт : 1364 Кбит/сек
Ширина : 720 пикселей
Высота : 304 пикселя
Соотношение сторон : 2,35:1
Частота кадров : 23,976 (24000/1001) кадра/сек
Цветовое пространство : YUV
Субдискретизация насыщенности : 4:2:0
Битовая глубина : 8 бит
Тип развёртки : Прогрессивная
Метод сжатия : С потерями
Бит/(Пиксели*Кадры) : 0.260
Размер потока : 1,27 Гбайт (87%)
Библиотека кодирования : XviD 73

Аудио
Идентификатор : 1
Формат : AC-3
Формат/Информация : Audio Coding 3
Коммерческое название : Dolby Digital
Идентификатор кодека : 2000
Продолжительность : 2 ч. 13 м.
Вид битрейта : Постоянный
Битрейт : 192 Кбит/сек
Каналы : 2 канала
ChannelLayout : L R
Частота : 48,0 КГц
Частота кадров : 31,250 кадров/сек (1536 SPF)
Битовая глубина : 16 бит
Метод сжатия : С потерями
Размер потока : 183 Мбайт (12%)
Выравнивание : Разделение по промежуткам
Продолжительность промежутка : 42 мс. (1,00 видеокадр)
Время предзагрузки промежутка : 500 мс.

Релиз от: порошков


_________________
Проголосуй за трекер Открытый торрент трекер - RUS-MEDIA.ORG

Проголосуй Открытый торрент трекер - RUS-MEDIA.ORG


Скачать книги и аудио книги через торрент


Вернуться к началу
 Профиль Отправить личное сообщение  
 
   Похожие торренты   Автор   Торрент   Размер 
В этой теме нет новых непрочитанных сообщений. Лучшие враги / The Best of Enemies [драма, биография, история, 2019] WEB-DLRip-AVC, Mvo

salma3

0 | 1

2.28 ГБ

В этой теме нет новых непрочитанных сообщений. Лучшие враги / The Best of Enemies [Драма, биография, история, 2019] WEB-DLRip, Mvo | [HDRezka Studio]

NTL

5 | 0

748 МБ

В этой теме нет новых непрочитанных сообщений. Лучшие враги / The Best of Enemies [Драма, биография, история, 2019] WEB-DL 1080p, Mvo

NTL

11 | 0

4.81 ГБ

В этой теме нет новых непрочитанных сообщений. Лучшие враги / The Best of Enemies [Драма, биография, история, 2019] BDRip, Mvo

salma3

0 | 0

1.46 ГБ

В этой теме нет новых непрочитанных сообщений. Лучшие враги / The Best of Enemies [Драма, биография, история, 2019] BDRip-AVC, Mvo

salma3

0 | 0

2.26 ГБ

В этой теме нет новых непрочитанных сообщений. Лучшие враги / The Best of Enemies [драма, биография, история, 2019] BDRip 720p, Mvo

NTL

0 | 0

8.04 ГБ

В этой теме нет новых непрочитанных сообщений. Лучшие враги / The Best of Enemies [Драма, биография, история, 2019] BDRip 1080p, Mvo [iTunes]

salma3

0 | 2

15.7 ГБ


Начать новую тему Ответить на тему  [ 1 сообщение ] 




Для Мосгорсуда, Роскомнадзора и рекламодателей:: rstracker[собака]yandex.ru
cron