COVID-19 - Последняя информация о коронавирусе на сайте Минздрава




Торрент файл
скачать торрент магнет ссылка Добавлен: 25 июн 2019, 01:21
Размер: 2.06 ГБ
Сидеров: 5
Личеров: 1
Статус: (salma3)
Автор

СообщениеДобавлено: 25 июн 2019, 01:21 

Не в сети
Супермодератор
Аватара пользователя
Дата регистрации:
15 фев 2012, 16:44
Возраст: 31
Спасибо: 8280 / 2148
Сообщения: 96717
Год выхода: 2006
Жанр: ужасы, триллер
Режиссер: Джеймс Вонг

В ролях: Мэри Элизабет Уинстэд, Райан Мерриман, Крис Лемке, Алекс Джонсон, Сэм Истон, Джесси Мосс, Джина Холден, Тексас Бэттл, Челан Симмонс, Кристал Лоу

О фильме:
Главная героиня фильма — старшеклассница Венди Кристенсен, у которой однажды возникло предчувствие, что она и ее друзья станут жертвами несчастного случая, который произойдет на «американских горках». Когда же самые страшные опасения Венди подтверждаются, то те, кто сумел все-таки обмануть смерть и выжить, оказываются вынужденными расплачиваться за то, что изменили свою судьбу…



Страна: США, Германя, Канада
Продолжительность: 01:32:49
Перевод: Дублированный

Файл
Качество: BDRip-AVC
Формат: MKV
Видео: 1024x576, 23.976 fps, MPEG-4 AVC, 2280 kbps avg
Аудио 1: Russian: 48 kHz, AC3, 3/2 (L,C,R,l,r) + LFE ch, ~448 kbps avg
Аудио 2: English: 48 kHz, AC3, 3/2 (L,C,R,l,r) + LFE ch, ~448 kbps avg
Субтитры: Русские (full), английские (full)

General
Unique ID : 247941191403480335372415568865559204441 (0xBA87BC8B12F257E47A220412DC0E5259)
Complete name : D:Final Destination 3 (2006) OM.mkv
Format : Matroska
Format version : Version 4
File size : 2.06 GiB
Duration : 1 h 32 min
Overall bit rate : 3 177 kb/s
Encoded date : UTC 2019-06-24 14:49:05
Writing application : mkvmerge v34.0.0 ('Sight and Seen') 32-bit
Writing library : libebml v1.3.7 + libmatroska v1.5.0

Video
ID : 1
Format : AVC
Format/Info : Advanced Video Codec
Format profile : High@L4.1
Format settings : CABAC / 8 Ref Frames
Format settings, CABAC : Yes
Format settings, Reference frames : 8 frames
Codec ID : V_MPEG4/ISO/AVC
Duration : 1 h 32 min
Bit rate : 2 280 kb/s
Width : 1 024 pixels
Height : 576 pixels
Display aspect ratio : 16:9
Frame rate mode : Constant
Frame rate : 23.976 (24000/1001) FPS
Color space : YUV
Chroma subsampling : 4:2:0
Bit depth : 8 bits
Scan type : Progressive
Bits/(Pixel*Frame) : 0.161
Stream size : 1.48 GiB (72%)
Writing library : x264 core 125 r2208 d9d2288
Encoding settings : cabac=1 / ref=8 / deblock=1:-1:-1 / analyse=0x3:0x133 / me=umh / subme=9 / psy=1 / psy_rd=1.00:0.10 / mixed_ref=1 / me_range=32 / chroma_me=1 / trellis=2 / 8x8dct=1 / cqm=0 / deadzone=21,11 / fast_pskip=0 / chroma_qp_offset=-3 / threads=6 / lookahead_threads=1 / sliced_threads=0 / nr=0 / decimate=1 / interlaced=0 / bluray_compat=0 / constrained_intra=0 / bframes=3 / b_pyramid=2 / b_adapt=2 / b_bias=0 / direct=3 / weightb=1 / open_gop=0 / weightp=2 / keyint=250 / keyint_min=25 / scenecut=40 / intra_refresh=0 / rc_lookahead=60 / rc=2pass / mbtree=1 / bitrate=2280 / ratetol=1.0 / qcomp=0.60 / qpmin=0 / qpmax=69 / qpstep=4 / cplxblur=20.0 / qblur=0.5 / ip_ratio=1.40 / aq=1:1.00
Language : English
Default : Yes
Forced : No

Audio #1
ID : 2
Format : AC-3
Format/Info : Audio Coding 3
Commercial name : Dolby Digital
Codec ID : A_AC3
Duration : 1 h 32 min
Bit rate mode : Constant
Bit rate : 448 kb/s
Channel(s) : 6 channels
Channel layout : L R C LFE Ls Rs
Sampling rate : 48.0 kHz
Frame rate : 31.250 FPS (1536 SPF)
Bit depth : 16 bits
Compression mode : Lossy
Stream size : 297 MiB (14%)
Language : Russian
Service kind : Complete Main
Default : Yes
Forced : No

Audio #2
ID : 3
Format : AC-3
Format/Info : Audio Coding 3
Commercial name : Dolby Digital
Codec ID : A_AC3
Duration : 1 h 32 min
Bit rate mode : Constant
Bit rate : 448 kb/s
Channel(s) : 6 channels
Channel layout : L R C LFE Ls Rs
Sampling rate : 48.0 kHz
Frame rate : 31.250 FPS (1536 SPF)
Bit depth : 16 bits
Compression mode : Lossy
Stream size : 297 MiB (14%)
Language : English
Service kind : Complete Main
Default : No
Forced : No

Text #1
ID : 4
Format : UTF-8
Codec ID : S_TEXT/UTF8
Codec ID/Info : UTF-8 Plain Text
Duration : 1 h 26 min
Bit rate : 82 b/s
Count of elements : 942
Stream size : 52.4 KiB (0%)
Language : Russian
Default : No
Forced : No

Text #2
ID : 5
Format : UTF-8
Codec ID : S_TEXT/UTF8
Codec ID/Info : UTF-8 Plain Text
Duration : 1 h 24 min
Bit rate : 57 b/s
Count of elements : 1187
Stream size : 35.7 KiB (0%)
Language : English
Default : No
Forced : No



_________________
Проголосуй за трекер Открытый торрент трекер - RUS-MEDIA.ORG

Проголосуй Открытый торрент трекер - RUS-MEDIA.ORG


Скачать книги и аудио книги через торрент


Вернуться к началу
 Профиль Отправить личное сообщение  
 
   Похожие торренты   Автор   Торрент   Размер 
В этой теме нет новых непрочитанных сообщений. Пункт назначения: Смайл / Polaroid [Ужасы, триллер, детектив, 2019] BDRip 1080p, Dub [iTunes]

salma3

1 | 0

6.14 ГБ

В этой теме нет новых непрочитанных сообщений. Пункт назначения: Смайл / Полароид / Polaroid [Ужасы, триллер, детектив, 2019] BDRip, Dub [iTunes]

salma3

9 | 4

1.44 ГБ

В этой теме нет новых непрочитанных сообщений. Пункт назначения: Смайл / Полароид / Polaroid [Ужасы, триллер, детектив, 2019] BDRip 1080p, Dub [iTunes]

salma3

10 | 1

5.63 ГБ

В этой теме нет новых непрочитанных сообщений. Пункт назначения: Смайл / Полароид / Polaroid [Ужасы, триллер, детектив, 2019] BDRip 720p, Dub [iTunes]

salma3

0 | 0

3.64 ГБ

В этой теме нет новых непрочитанных сообщений. Сделка с дьяволом / The Covenant [ужасы, фэнтези, боевик, 2006] WEB-DLRip-AVC, Dub [Open Matte]

salma3

24 | 17

2.18 ГБ

В этой теме нет новых непрочитанных сообщений. Пункт назначения: Дьюсбери / Destination: Dewsbury [Комедия, 2018] WEB-DL 1080p, Mvo

salma3

В этой теме нет новых непрочитанных сообщений. Пункт назначения: Дьюсбери / Destination: Dewsbury [Комедия, 2018] WEB-DL 1080p, Mvo

salma3

5 | 5

3.11 ГБ


Начать новую тему Ответить на тему  [ 1 сообщение ] 




Для Мосгорсуда, Роскомнадзора и рекламодателей:: rstracker[собака]yandex.ru
cron