COVID-19 - Последняя информация о коронавирусе на сайте Минздрава




Торрент файл
скачать торрент магнет ссылка Добавлен: 23 июн 2019, 18:45
Размер: 746.27 МБ
Сидеров: 0
Личеров: 0
Статус: (salma3)
Автор

СообщениеДобавлено: 23 июн 2019, 18:45 

Информация о фильме
Название: Полет Феникса
Оригинальное название: Flight of the Phoenix
Год выхода: 2004
Жанр: Боевик, триллер, драма, приключения
Режиссер: Джон Мур
В ролях: Дэннис Куэйд, Тайриз Гибсон, Джованни Рибизи, Миранда Отто, Тони Каррен, Стики Фингаз, Джейкоб Варгас, Хью Лори, Скотт Майкл Кэмпбелл

О фильме: Действие фильма разворачивается в монгольской пустыне, в самом сердце которой терпит крушение грузовой самолет, перевозящий нефтяных вахтовиков. Они возвращались с месторождения, которое перестало приносить прибыль и было закрыто. Решение компании выполнял командир команды самолета.
Таким образом, назад он вез озлобленных на него и компанию безработных нефтяников. После крушения, поняв, что помощи ждать неоткуда, команда решает самостоятельно построить самолет и долететь до Пекина, пока жажда, солнце и противоречия между ними не доконали их окончательно…



Страна: США
Продолжительность: 01:52:57
Перевод: Профессиональный (дублированный)

Файл
Кодек: H.264
Качество: BDRip-AVC
Видео: 720x306, 23.976 fps, 846 kb/s
Звук: AAC, 2ch, 76kbps
General
Unique ID : 20556555899350133650768743692868845162 (0xF770C74B844FF8E7C4AC0DA13CCFE6A)
Complete name : C:UsersПашаDownloadsПолет Феникса.mkv
Format : Matroska
Format version : Version 4
File size : 746 MiB
Duration : 1 h 52 min
Overall bit rate : 924 kb/s
Encoded date : UTC 2019-06-23 12:32:54
Writing application : mkvmerge v33.1.0 ('Primrose') 64-bit
Writing library : libebml v1.3.7 + libmatroska v1.5.0
Cover : Yes
Attachments : cover.jpg

Video
ID : 1
Format : AVC
Format/Info : Advanced Video Codec
Format profile : High@L4.1
Format settings : CABAC / 12 Ref Frames
Format settings, CABAC : Yes
Format settings, ReFrames : 12 frames
Codec ID : V_MPEG4/ISO/AVC
Duration : 1 h 52 min
Bit rate : 846 kb/s
Width : 720 pixels
Height : 306 pixels
Display aspect ratio : 2.35:1
Frame rate mode : Constant
Frame rate : 23.976 (24000/1001) FPS
Color space : YUV
Chroma subsampling : 4:2:0
Bit depth : 8 bits
Scan type : Progressive
Bits/(Pixel*Frame) : 0.160
Stream size : 683 MiB (92%)
Title : Rip by donadar
Writing library : x264 core 146 r2538 121396c
Encoding settings : cabac=1 / ref=12 / deblock=1:-3:-3 / analyse=0x3:0x113 / me=umh / subme=10 / psy=1 / psy_rd=1.00:0.15 / mixed_ref=1 / me_range=32 / chroma_me=1 / trellis=2 / 8x8dct=1 / cqm=0 / deadzone=21,11 / fast_pskip=0 / chroma_qp_offset=-3 / threads=8 / lookahead_threads=1 / sliced_threads=0 / nr=0 / decimate=0 / interlaced=0 / bluray_compat=0 / constrained_intra=0 / bframes=12 / b_pyramid=2 / b_adapt=2 / b_bias=0 / direct=3 / weightb=1 / open_gop=0 / weightp=2 / keyint=240 / keyint_min=23 / scenecut=40 / intra_refresh=0 / rc_lookahead=40 / rc=2pass / mbtree=1 / bitrate=846 / ratetol=1.0 / qcomp=0.60 / qpmin=0 / qpmax=69 / qpstep=4 / cplxblur=20.0 / qblur=0.5 / vbv_maxrate=14000 / vbv_bufsize=14000 / nal_hrd=none / filler=0 / ip_ratio=1.40 / aq=3:1.00
Language : English
Default : Yes
Forced : No

Audio
ID : 2
Format : AAC LC
Format/Info : Advanced Audio Codec Low Complexity
Codec ID : A_AAC-2
Duration : 1 h 52 min
Bit rate : 76.0 kb/s
Channel(s) : 2 channels
Channel layout : L R
Sampling rate : 48.0 kHz
Frame rate : 46.875 FPS (1024 SPF)
Compression mode : Lossy
Delay relative to video : 9 ms
Stream size : 61.4 MiB (8%)
Language : Russian
Default : Yes
Forced : No




Скачать книги и аудио книги через торрент


Вернуться к началу
  
 
   Похожие торренты   Автор   Торрент   Размер 
В этой теме нет новых непрочитанных сообщений. Полет навигатора / Flight of the Navigator [Фантастика, приключения, семейный, 1986] BDRip, Dub | Remastered

K15

0 | 0

1.46 ГБ

В этой теме нет новых непрочитанных сообщений. Полет навигатора / Flight of the Navigator [Фантастика, приключения, семейный, 1986] BDRip 1080p, Dub [Remastered]

salma3

15 | 1

9.57 ГБ

В этой теме нет новых непрочитанных сообщений. Полёт Чёрного Ангела / Flight of Black Angel [боевик, триллер, 1991] DVDRip, Mvo

salma3

0 | 0

1.47 ГБ

В этой теме нет новых непрочитанных сообщений. Змеиный полет / Snakes on a Plane [Боевик, триллер, криминал, 2006] BDRip 720p, Dub

salma3

0 | 0

6.15 ГБ

В этой теме нет новых непрочитанных сообщений. Люди Икс: Тёмный Феникс / Dark Phoenix [Фантастика, боевик, приключения, 2019] BDRip, Dub [Лицензия]

salma3

33 | 2

2.18 ГБ

В этой теме нет новых непрочитанных сообщений. Люди Икс: Тёмный Феникс / Dark Phoenix [Фантастика, боевик, приключения, 2019] BDRip, Dub [Лицензия]

salma3

28 | 5

1.47 ГБ

В этой теме нет новых непрочитанных сообщений. Люди Икс: Тёмный Феникс / Dark Phoenix [Фантастика, боевик, приключения, 2019] BDRip 720p, Dub [Лицензия]

salma3

19 | 10

7.76 ГБ


Начать новую тему Ответить на тему  [ 1 сообщение ] 




Для Мосгорсуда, Роскомнадзора и рекламодателей:: rstracker[собака]yandex.ru
cron