COVID-19 - Последняя информация о коронавирусе на сайте Минздрава




Торрент файл
скачать торрент магнет ссылка Добавлен: 21 июн 2019, 22:00
Размер: 2.18 ГБ
Сидеров: 12
Личеров: 7
Статус: (salma3)
Автор

СообщениеДобавлено: 21 июн 2019, 22:00 

Не в сети
Супермодератор
Аватара пользователя
Дата регистрации:
15 фев 2012, 16:44
Возраст: 30
Спасибо: 8264 / 2148
Сообщения: 96324
Год выхода: 1998
Жанр: Боевик, драма, триллер
Режиссер: Барбет Шредер

В ролях: Майкл Китон, Энди Гарсиа, Брайан Кокс, Нил Матараццо, Марша Гей Харден, Эрик Кинг, Эфрен Фижюра, Джозеф Кросс, Ричард Рили, Джанель Молони, Трейси Уолтер, Стивен Шаб

О фильме:
Два человека с диаметрально противоположными устремлениями вступают в непримиримую борьбу. Полицейскому Фрэнку Коннору необходимо найти донора для пересадки костного мозга своему смертельно больному сыну. Компьютер данных, к которому он пробрался нелегально, выдает ему фамилию Питера МакКэйба, жестокого убийцы, приговоренного к казни. Когда «смертник» дает согласие на пересадку и уже лежит на операционном столе, происходит невероятное - он убегает, взорвав жидким кислородом чуть ли не всю больницу. То, что осталось, превращается в настоящее поле боя, а Фрэнк должен любой ценой взять маньяка живым... Если Фрэнк до конца исполнит свой долг, преступник погибнет, и тогда несчастный ребенок обречен. Он может спасти жизнь сыну только сохранив жизнь убийце, и в этой кровавой драме у него нет союзников: и преступник, и полиция против него. В конечном счете, и Коннор и МакКэйб преследуют одну и ту же цель - выживание, только, если первый спасает чужую жизнь, то второй - свою. Решить эту моральную проблему можно исключительно с помощью оружия: так из психологической драмы вырастает великолепный боевик. Гордиев узел должен быть разрублен мечом. Чтобы спасся один, должны погибнуть многие…



Страна: США
Продолжительность: 01:40:52
Перевод: Профессиональный (многоголосый закадровый)
Субтитры: Russian, English

Файл
Формат: Matroska
Качество: WEB-DLRip-AVC
Видео: 1024x576 at 23.976 fps, x264, ~2711 kbps
Аудио: AC3, 6 ch, ~384 kbps - | Русский | - ОРТ
Формат субтитров: softsub (SRT)

***Релиз от: -=DoMiNo=-
M/I

General
Unique ID : 154929714324971128414380215698773615698 (0x748E60AB022B345E6C135A49AE25A452)
Complete name : Отчаянные меры.(1998).WEB-DLRip-AVC.F.S.[-=DoMiNo=-].mkv
Format : Matroska
Format version : Version 4
File size : 2.18 GiB
Duration : 1 h 40 min
Overall bit rate : 3 097 kb/s
Movie name : Отчаянные меры
Deion : Два человека с диаметрально противоположными устремлениями вступают в непримиримую борьбу. Полицейский Фрэнк Коннор стоит перед сложнейшей дилеммой. С одной стороны, его сын смертельно болен и ему необходима пересадка костного мозга. Но с другой, единственный подходящий донор Питер Маккэйб - жестокий убийца, приговоренный к казни - совершает побег из госпиталя куда он был доставлен из тюрьмы.
Attachments : poster / poster
ACTORS : Майкл Китон, Энди Гарсиа, Брайан Кокс, Марша Гей Харден, Эрик Кинг, Эфрен Фижюра, Джозеф Кросс, Джанель Молони, Ричард Рили, Трейси Уолтер
COMPOSER : Тревор Джонс
COUNTRY : США
DATE : 1998
DIRECTOR : Барбет Шрёдер
GENRE : Боевик, Триллер, Драма
ITUNEXTC : ru-movie|16+|375|
ORIGINAL_TITLE : Desperate Measures
PRODUCER : Гари Фостер, Сьюзэн Хоффман, Ли Рич
WRITER : Дэвид Класс
Video
ID : 1
Format : AVC
Format/Info : Advanced Video Codec
Format profile : High@L4.1
Format settings : CABAC / 10 Ref Frames
Format settings, CABAC : Yes
Format settings, Reference : 10 frames
Codec ID : V_MPEG4/ISO/AVC
Duration : 1 h 40 min
Bit rate : 2 711 kb/s
Width : 1 024 pixels
Height : 576 pixels
Display aspect ratio : 16:9
Frame rate mode : Constant
Frame rate : 23.976 (24000/1001) FPS
Color space : YUV
Chroma subsampling : 4:2:0
Bit depth : 8 bits
Scan type : Progressive
Bits/(Pixel*Frame) : 0.192
Stream size : 1.87 GiB (86%)
Title : RIP_BY_-=DoMiNo=-
Writing library : x264 core 157 r2969 d4099dd
Encoding settings : cabac=1 / ref=10 / deblock=1:-2:-2 / analyse=0x3:0x133 / me=umh / subme=11 / psy=1 / psy_rd=1.00:0.15 / mixed_ref=1 / me_range=48 / chroma_me=1 / trellis=2 / 8x8dct=1 / cqm=0 / deadzone=21,11 / fast_pskip=0 / chroma_qp_offset=-3 / threads=6 / lookahead_threads=1 / sliced_threads=0 / nr=0 / decimate=0 / interlaced=0 / bluray_compat=0 / constrained_intra=0 / bframes=10 / b_pyramid=2 / b_adapt=2 / b_bias=0 / direct=3 / weightb=1 / open_gop=0 / weightp=2 / keyint=240 / keyint_min=24 / scenecut=40 / intra_refresh=0 / rc=2pass / mbtree=0 / bitrate=2711 / ratetol=1.0 / qcomp=0.70 / qpmin=0 / qpmax=69 / qpstep=4 / cplxblur=20.0 / qblur=0.5 / ip_ratio=1.40 / pb_ratio=1.30 / aq=3:0.80
Default : Yes
Forced : No
Color range : Limited
Color primaries : BT.709
Transfer characteristics : BT.709
Matrix coefficients : BT.709
Audio
ID : 2
Format : AC-3
Format/Info : Audio Coding 3
Commercial name : Dolby Digital
Codec ID : A_AC3
Duration : 1 h 40 min
Bit rate mode : Constant
Bit rate : 384 kb/s
Channel(s) : 6 channels
Channel layout : L R C LFE Ls Rs
Sampling rate : 48.0 kHz
Frame rate : 31.250 FPS (1536 SPF)
Bit depth : 16 bits
Compression mode : Lossy
Stream size : 277 MiB (12%)
Title : MVO ORT
Language : Russian
Service kind : Complete Main
Default : Yes
Forced : No
Text #1
ID : 3
Format : UTF-8
Codec ID : S_TEXT/UTF8
Codec ID/Info : UTF-8 Plain Text
Language : Russian
Default : Yes
Forced : No
Text #2
ID : 4
Format : UTF-8
Codec ID : S_TEXT/UTF8
Codec ID/Info : UTF-8 Plain Text
Language : English
Default : No
Forced : No
Text #3
ID : 5
Format : UTF-8
Codec ID : S_TEXT/UTF8
Codec ID/Info : UTF-8 Plain Text
Title : SDH
Language : English
Default : No
Forced : No
Menu
00:00:00.000 : :Start
00:05:27.000 : :Peter J. McCabe
00:07:45.000 : :A compatible donor
00:13:44.000 : :Matt
00:17:49.000 : :Uncle Pete
00:21:56.000 : :Dislocated thumb
00:24:08.000 : :Anti-drug request
00:24:58.000 : :Library research
00:26:21.000 : :Hospital tour
00:26:54.000 : :Human storage
00:32:22.000 : :Prepping the donor
00:35:33.000 : :Out
00:38:42.000 : :The blood trail
00:40:55.000 : :ER stand-off
00:47:51.000 : :In Matt's room
00:50:26.000 : :Emergency entrance
00:52:20.000 : :Tanked
00:53:46.000 : :Blowing the power
00:58:04.000 : :Atop the walkway
00:59:38.000 : :Sulfuric acid hypo
01:02:14.000 : :Lock down
01:07:16.000 : :"I just shot a rat."
01:12:54.000 : :Blowing the walkway
01:14:55.000 : :Ward room
01:17:57.000 : :Down to the morgue
01:25:28.000 : :Pickup pursuit
01:30:19.000 : :On the bridge
01:34:02.000 : :Redemption


_________________
Проголосуй за трекер Открытый торрент трекер - RUS-MEDIA.ORG

Проголосуй Открытый торрент трекер - RUS-MEDIA.ORG


Скачать книги и аудио книги через торрент


Вернуться к началу
 Профиль Отправить личное сообщение  
 
   Похожие торренты   Автор   Торрент   Размер 
В этой теме нет новых непрочитанных сообщений. Отчаянные меры / Desperate Measures [Боевик, драма, триллер, 1998] WEB-DLRip, Mvo

salma3

0 | 0

1.46 ГБ

В этой теме нет новых непрочитанных сообщений. Отчаянные меры / Desperate Measures [Боевик, драма, триллер, 1998] WEB-DLRip 720p, Mvo

salma3

1 | 68

3.8 ГБ

В этой теме нет новых непрочитанных сообщений. Отчаянные меры / Desperate Measures [Боевик, драма, триллер, 1998] WEB-DL 1080p, Mvo

salma3

0 | 0

11.4 ГБ

В этой теме нет новых непрочитанных сообщений. Без вины виноватый / Wrongfully Accused [боевик, триллер, комедия, 1998] WEB-DLRip-AVC, Mvo

salma3

0 | 0

743.63 МБ

В этой теме нет новых непрочитанных сообщений. Осада / The Siege [боевик, триллер, драма, 1998] WEB-DLRip-AVC, Dub [Open Matte]

salma3

0 | 0

742.02 МБ

В этой теме нет новых непрочитанных сообщений. Осада / The Siege [боевик, триллер, драма, 1998] WEB-DLRip-AVC, Dub [Open Matte]

salma3

0 | 0

2.44 ГБ

В этой теме нет новых непрочитанных сообщений. Столкновение с бездной / Deep Impact [фантастика, боевик, триллер, 1998] WEB-DLRip-AVC, Dub [Open Matte]

salma3

3 | 1

2.18 ГБ


Начать новую тему Ответить на тему  [ 1 сообщение ] 




Для Мосгорсуда, Роскомнадзора и рекламодателей:: rstracker[собака]yandex.ru
cron
cron