COVID-19 - Последняя информация о коронавирусе на сайте Минздрава




Торрент файл
скачать торрент магнет ссылка Добавлен: 11 июн 2019, 12:05
Размер: 742.58 МБ
Сидеров: 49
Личеров: 5
Статус: (salma3)
Автор

СообщениеДобавлено: 11 июн 2019, 12:05 

Не в сети
Супермодератор
Аватара пользователя
Дата регистрации:
15 фев 2012, 16:44
Возраст: 31
Спасибо: 8266 / 2148
Сообщения: 96373
Год выхода: 2019
Жанр: Триллер, драма, биография
Режиссер: Фарад Сафиниа

В ролях: Мэл Гибсон, Шон Пенн, Натали Дормер, Джереми Ирвин, Дженнифер Или, Стив Кугэн, Стивен Диллэйн, Эдди Марсан, Йоан Гриффит, Лоуренс Фокс.

О фильме:
Англия середины XIX века. Оксфордский профессор Джеймс Мюррей работает над первым в истории словарем английского языка, а его главным соратником становится заключенный психиатрической клиники для особо опасных преступников — доктор Уильям Майнор. Гений Майнор или сумасшедший, хитроумный преступник, ведущий дерзкую игру, чтобы вырваться на свободу, или одержимый ученый? И кто тогда Мюррей: верный друг, жертва манипуляции или организатор сговора?



Страна: Ирландия
Продолжительность: 02:04:27
Перевод: Дублированный | iTunes

Файл
Формат: Matroska
Качество: WEB-DLRip-AVC
Видео: 738x308 at 24.00 fps, x264, ~770 kbps
Аудио: AAC, 2 ch, ~64 kbps - | Русский | -

***Релиз от: -=DoMiNo=-

x264 info: frame I:1917 Avg QP:12.93 size: 33021
x264 info: frame P:43248 Avg QP:16.60 size: 8333
x264 info: frame B:134043 Avg QP:18.74 size: 2198
x264 info: consecutive B-frames: 3.7% 3.8% 6.1% 39.4% 12.2% 22.6% 4.3% 4.3% 1.1% 1.1% 1.5%

General
Unique ID : 301205514654855057168864976595466158744 (0xE29A126F2BC8F5DC013C40F9CA098298)
Complete name : Игры разумов.(2019).WEB-DLRip-AVC.[-=DoMiNo=-].mkv
Format : Matroska
Format version : Version 4
File size : 743 MiB
Duration : 2 h 4 min
Overall bit rate : 834 kb/s
Movie name : Игры разумов / The Professor and the Madman (2019)
Encoded date : UTC 2019-06-10 05:59:14
Writing application : mkvmerge v34.0.0 ('Sight and Seen') 64-bit
Writing library : libebml v1.3.7 + libmatroska v1.5.0
Attachments : poster

Video
ID : 1
Format : AVC
Format/Info : Advanced Video Codec
Format profile : High@L4.1
Format settings : CABAC / 12 Ref Frames
Format settings, CABAC : Yes
Format settings, Reference : 12 frames
Codec ID : V_MPEG4/ISO/AVC
Duration : 2 h 4 min
Bit rate : 770 kb/s
Width : 738 pixels
Height : 308 pixels
Display aspect ratio : 2.40:1
Frame rate mode : Constant
Frame rate : 24.000 FPS
Color space : YUV
Chroma subsampling : 4:2:0
Bit depth : 8 bits
Scan type : Progressive
Bits/(Pixel*Frame) : 0.141
Stream size : 685 MiB (92%)
Title : RIP_BY_-=DoMiNo=-
Writing library : x264 core 157 r2969 d4099dd
Encoding settings : cabac=1 / ref=12 / deblock=1:-1:-1 / analyse=0x3:0x133 / me=umh / subme=11 / psy=1 / psy_rd=1.00:0.00 / mixed_ref=1 / me_range=32 / chroma_me=1 / trellis=2 / 8x8dct=1 / cqm=0 / deadzone=21,11 / fast_pskip=1 / chroma_qp_offset=-2 / threads=6 / lookahead_threads=1 / sliced_threads=0 / nr=0 / decimate=1 / interlaced=0 / bluray_compat=0 / constrained_intra=0 / bframes=10 / b_pyramid=2 / b_adapt=2 / b_bias=0 / direct=3 / weightb=1 / open_gop=0 / weightp=2 / keyint=240 / keyint_min=24 / scenecut=40 / intra_refresh=0 / rc_lookahead=60 / rc=2pass / mbtree=1 / bitrate=770 / ratetol=1.0 / qcomp=0.65 / qpmin=0 / qpmax=69 / qpstep=4 / cplxblur=20.0 / qblur=0.5 / ip_ratio=1.40 / aq=1:1.00
Language : English
Default : Yes
Forced : No
Color range : Limited
Color primaries : BT.709
Transfer characteristics : BT.709
Matrix coefficients : BT.709

Audio
ID : 2
Format : AAC LC SBR
Format/Info : Advanced Audio Codec Low Complexity with Spectral Band Replication
Commercial name : HE-AAC
Format settings : Explicit
Codec ID : A_AAC-2
Duration : 2 h 4 min
Bit rate : 62.7 kb/s
Channel(s) : 2 channels
Channel layout : L R
Sampling rate : 48.0 kHz
Frame rate : 23.438 FPS (2048 SPF)
Compression mode : Lossy
Stream size : 55.8 MiB (8%)
Title : Дублированный | iTunes
Language : Russian
Default : Yes
Forced : No

Menu
00:00:00.000 : :1
00:10:52.000 : :2
00:18:58.000 : :3
00:27:16.000 : :4
00:36:13.000 : :5
00:46:23.000 : :6
00:57:00.000 : :7
01:06:02.000 : :8
01:16:08.000 : :9
01:26:02.000 : :10
01:34:54.000 : :11
01:44:13.000 : :12
01:53:36.000 : :13
01:59:18.000 : :14


_________________
Проголосуй за трекер Открытый торрент трекер - RUS-MEDIA.ORG

Проголосуй Открытый торрент трекер - RUS-MEDIA.ORG


Скачать книги и аудио книги через торрент


Вернуться к началу
 Профиль Отправить личное сообщение  
 
   Похожие торренты   Автор   Торрент   Размер 
В этой теме нет новых непрочитанных сообщений. Игры разумов / The Professor and the Madman [Триллер, драма, биография, 2019] WEB-DLRip, Dub [iTunes]

salma3

80 | 14

1.46 ГБ

В этой теме нет новых непрочитанных сообщений. Игры разумов / The Professor and the Madman [Триллер, драма, биография, 2019] WEB-DLRip, Dub [iTunes]

salma3

0 | 0

793.91 МБ

В этой теме нет новых непрочитанных сообщений. Игры разумов / The Professor and the Madman [Триллер, драма, биография, 2019] WEB-DL-HEVC 1080p, Dub [iTunes]

salma3

12 | 5

4.21 ГБ

В этой теме нет новых непрочитанных сообщений. Игры разумов / The Professor and the Madman [Триллер, драма, биография, 2019] BDRip 1080p, Dub [iTunes] [60 fps]

salma3

33 | 14

14.99 ГБ

В этой теме нет новых непрочитанных сообщений. Игры разумов / The Professor and the Madman [Триллер, драма, детекти, 2019] BDRip, Dub [iTunes]

salma3

0 | 0

2.12 ГБ

В этой теме нет новых непрочитанных сообщений. Игры разумов / The Professor and the Madman [Триллер, драма, детекти, 2019] BDRip, Dub [iTunes]

salma3

15 | 6

1.46 ГБ

В этой теме нет новых непрочитанных сообщений. Игры разумов / The Professor and the Madman [Триллер, драма, детекти, 2018] BDRip-AVC, Dub [iTunes]

salma3

0 | 0

1.4 ГБ


Начать новую тему Ответить на тему  [ 1 сообщение ] 




Для Мосгорсуда, Роскомнадзора и рекламодателей:: rstracker[собака]yandex.ru
cron