COVID-19 - Последняя информация о коронавирусе на сайте Минздрава




Торрент файл
скачать торрент магнет ссылка Добавлен: 01 июн 2019, 11:13
Размер: 1.46 ГБ
Сидеров: 0
Личеров: 0
Статус: (salma3)
Автор

СообщениеДобавлено: 01 июн 2019, 11:13 

Не в сети
Супермодератор
Аватара пользователя
Дата регистрации:
15 фев 2012, 16:44
Возраст: 31
Спасибо: 8266 / 2148
Сообщения: 96373
Год выхода: 1997
Жанр: комедия, фэнтези, драма
Режиссер: Рэндолл Миллер

В ролях: Марлон Уайанс /Marlon Wayans/, Кадим Хардисон /Kadeem Hardison/, Дэвид Пэймер /David Paymer/, Майкл Мишель /Michael Michele/, Кевин Данн /Kevin Dunn/, Гари Джонс /Gary Jones/, Лоренцо Орр /Lorenzo Orr/, Владимир Кук /Vladimir Cuk/, Трэвис Форд /Travis Ford/, Джек Карулетва /Jack Karuletwa/

О фильме:
Кенни Тайлер и его старший брат Энтони — звезды школьной баскетбольной команды. Неожиданная смерть Энтони не оставляет ему практически никаких шансов на успех. Но вдруг все меняется. Бывший аутсайдер одерживает победу за победой.

Как будто кто-то невидимый помогает будущим чемпионам… Какая-то таинственная сила… или просто призрак старшего брата, который самовольно вышел на площадку в качестве шестого игрока. Казалось бы, лучше и быть не может, но Кени хочет выиграть честно…



Страна: США
Продолжительность: 01:48:16
Перевод: Профессиональный (многоголосый, закадровый) + профессиональный (двухголосый, закадровый)
Субтитры: Русские форсированные (вшитые, не отключаемые)

Файл
Формат: AVI
Качество: BDRip | [Bluray.REMUX.AVC.DTS-HD.2.0.Rus.Eng.SpaceHD13]
Видео: 720x384 at 23.976 fps, XviD 67, ~1534 kbps
Аудио#1: AC3, 2/0 (L,R) ch, ~192 kbps - MVO | Видеосервис / VHS|
Аудио#2: AC3, 2/0 (L,R) ch, ~192 kbps - DVO | СТС |

***Релиз от: -=DoMiNo=-

General
Complete name : Шестой игрок.(1997).BDRip.[-=DoMiNo=-].avi
Format : AVI
Format/Info : Audio Video Interleave
Format profile : OpenDML
File size : 1.46 GiB
Duration : 1 h 48 min
Overall bit rate : 1 936 kb/s

Video
ID : 0
Format : MPEG-4 Visual
Format profile : Advanced Simple@L5
Format settings : BVOP2 / Custom Matrix
Format settings, BVOP : 2
Format settings, QPel : No
Format settings, GMC : No warppoints
Format settings, Matrix : Custom
Codec ID : XVID
Codec ID/Hint : XviD
Duration : 1 h 48 min
Bit rate : 1 534 kb/s
Width : 720 pixels
Height : 384 pixels
Display aspect ratio : 1.85:1
Frame rate : 23.976 (24000/1001) FPS
Color space : YUV
Chroma subsampling : 4:2:0
Bit depth : 8 bits
Scan type : Progressive
Compression mode : Lossy
Bits/(Pixel*Frame) : 0.231
Stream size : 1.16 GiB (79%)
Writing library : XviD 67

Audio #1
ID : 1
Format : AC-3
Format/Info : Audio Coding 3
Commercial name : Dolby Digital
Codec ID : 2000
Duration : 1 h 48 min
Bit rate mode : Constant
Bit rate : 192 kb/s
Channel(s) : 2 channels
Channel layout : L R
Sampling rate : 48.0 kHz
Frame rate : 31.250 FPS (1536 SPF)
Bit depth : 16 bits
Compression mode : Lossy
Stream size : 148 MiB (10%)
Alignment : Aligned on interleaves
Interleave, duration : 32 ms (0.77 video frame)
Service kind : Complete Main

Audio #2
ID : 2
Format : AC-3
Format/Info : Audio Coding 3
Commercial name : Dolby Digital
Codec ID : 2000
Duration : 1 h 48 min
Bit rate mode : Constant
Bit rate : 192 kb/s
Channel(s) : 2 channels
Channel layout : L R
Sampling rate : 48.0 kHz
Frame rate : 31.250 FPS (1536 SPF)
Bit depth : 16 bits
Compression mode : Lossy
Stream size : 148 MiB (10%)
Alignment : Aligned on interleaves
Interleave, duration : 32 ms (0.77 video frame)
Service kind : Complete Main


_________________
Проголосуй за трекер Открытый торрент трекер - RUS-MEDIA.ORG

Проголосуй Открытый торрент трекер - RUS-MEDIA.ORG


Скачать книги и аудио книги через торрент


Вернуться к началу
 Профиль Отправить личное сообщение  
 
   Похожие торренты   Автор   Торрент   Размер 
В этой теме нет новых непрочитанных сообщений. Шестое чувство / The Sixth Sense [Триллер, драма, детектив, 1999] BDRip 720p, Mvo

salma3

0 | 0

5.6 ГБ

В этой теме нет новых непрочитанных сообщений. Игрок / The Player [Триллер, драма, мелодрама, 1992] BDRip 720p, Mvo

salma3

0 | 0

8.46 ГБ

В этой теме нет новых непрочитанных сообщений. Человек-метеор / The Meteor Man [Фантастика, фэнтези, комедия, 1993] BDRip 1080p, Mvo

salma3

0 | 0

12.23 ГБ

В этой теме нет новых непрочитанных сообщений. Человек, который убил Дон Кихота / The Man Who Killed Don Quixote [Фэнтези, драма, комедия, 2018] BDRip, Dub [iTunes]

salma3

0 | 1

1.46 ГБ

В этой теме нет новых непрочитанных сообщений. Человек, который убил Дон Кихота / The Man Who Killed Don Quixote [Фэнтези, драма, комедия, 2018] BDRip, Dub [iTunes]

salma3

0 | 0

2.12 ГБ

В этой теме нет новых непрочитанных сообщений. Человек, который убил Дон Кихота / The Man Who Killed Don Quixote [Фэнтези, драма, комедия, 2018] BDRip-AVC, Dub [iTunes]

salma3

0 | 0

2.43 ГБ

В этой теме нет новых непрочитанных сообщений. Человек, который убил Дон Кихота / The Man Who Killed Don Quixote [Фэнтези, драма, комедия, 2018] BDRip 1080p, Dub [iTunes]

salma3

0 | 0

13.84 ГБ


Начать новую тему Ответить на тему  [ 1 сообщение ] 




Для Мосгорсуда, Роскомнадзора и рекламодателей:: rstracker[собака]yandex.ru
cron