COVID-19 - Последняя информация о коронавирусе на сайте Минздрава




Торрент файл
скачать торрент магнет ссылка Добавлен: 01 май 2019, 11:39
Размер: 2.9 ГБ
Сидеров: 0
Личеров: 0
Статус: (salma3)
Автор

СообщениеДобавлено: 01 май 2019, 11:39 

Не в сети
Супермодератор
Аватара пользователя
Дата регистрации:
15 фев 2012, 16:44
Возраст: 30
Спасибо: 8263 / 2148
Сообщения: 96287
Год выхода: 2003
Жанр: драма, криминал, биография
Режиссер: Пэтти Дженкинс

В ролях: Шарлиз Терон, Кристина Риччи, Брюс Дерн, Ли Тергесен, Энни Корли, Прюитт Тэйлор Винс, Марко Ст. Джон, Марк Маколей, Скотт Уилсон, Рас Блэквелл и др.

О фильме:
Любовная история, разворачивающаяся на фоне ужасных преступлений двух отверженных — проститутки-бродяжки Уорнос, убивающей многих из своих клиентов — «джонни», и Селби Уолл, отосланной родителями к тетке во Флориду, чтобы «излечить от лесбийских наклонностей». Отчаявшаяся, близкая к самоубийству Эйлин забредает в бар, где встречается с Селби и влюбляется в нее. Чтобы жить с Селби, она продолжает продавать свое тело. В ней нарастает смертельная ярость, приводящая к череде убийств, в результате которых средства массовой информации назовут ее Монстром — первым серийным убийцей среди женщин…



Страна: США, Германия
Продолжительность: 01:48:48
Перевод: Профессиональный (дублированный)
Субтитры: Russian, English

Файл
Формат: Matroska
Качество: BDRip-AVC [MONSTER_2003_BDRemux_1080p_BLUEBIRD]
Видео: 1034x560 at 23.976 fps, x264, ~3369 kbps
Аудио: AC3, 6 ch, ~448 kbps - | Русский | - Dub R5 West Video
Формат субтитров: softsub (SRT)

***Релиз от: -=DoMiNo=-

x264 info: frame I:988 Avg QP:18.50 size: 71259
x264 info: frame P:31046 Avg QP:19.41 size: 35483
x264 info: frame B:124437 Avg QP:21.38 size: 12409
x264 info: consecutive B-frames: 1.2% 1.5% 3.7% 19.5% 10.4% 56.6% 2.8% 3.4% 0.4% 0.4% 0.0%

General
Unique ID : 239458177307441270429051919694524795432 (0xB425F7A83690C8002FA7939F05534A28)
Complete name : Монстр.(2003).BDRip-AVC.[-=DoMiNo=-].mkv
Format : Matroska
Format version : Version 4
File size : 2.90 GiB
Duration : 1 h 48 min
Overall bit rate : 3 818 kb/s
Movie name : Монстр / Monster (2003)
Encoded date : UTC 2019-05-01 06:08:28
Writing application : mkvmerge v33.1.0 ('Primrose') 64-bit
Writing library : libebml v1.3.7 + libmatroska v1.5.0
Attachments : poster.jpg

Video
ID : 1
Format : AVC
Format/Info : Advanced Video Codec
Format profile : High@L4.1
Format settings : CABAC / 12 Ref Frames
Format settings, CABAC : Yes
Format settings, Reference : 12 frames
Codec ID : V_MPEG4/ISO/AVC
Duration : 1 h 48 min
Bit rate : 3 369 kb/s
Width : 1 034 pixels
Height : 560 pixels
Display aspect ratio : 1.85:1
Frame rate mode : Constant
Frame rate : 23.976 (24000/1001) FPS
Color space : YUV
Chroma subsampling : 4:2:0
Bit depth : 8 bits
Scan type : Progressive
Bits/(Pixel*Frame) : 0.243
Stream size : 2.56 GiB (88%)
Title : RIP_BY_-=DoMiNo=-
Writing library : x264 core 157 r2969 d4099dd
Encoding settings : cabac=1 / ref=12 / deblock=1:-3:-3 / analyse=0x3:0x133 / me=umh / subme=11 / psy=1 / psy_rd=0.90:0.05 / mixed_ref=1 / me_range=32 / chroma_me=1 / trellis=2 / 8x8dct=1 / cqm=0 / deadzone=21,11 / fast_pskip=0 / chroma_qp_offset=-3 / threads=6 / lookahead_threads=1 / sliced_threads=0 / nr=0 / decimate=1 / interlaced=0 / bluray_compat=0 / constrained_intra=0 / bframes=10 / b_pyramid=2 / b_adapt=2 / b_bias=0 / direct=3 / weightb=1 / open_gop=0 / weightp=2 / keyint=250 / keyint_min=23 / scenecut=40 / intra_refresh=0 / rc_lookahead=120 / rc=2pass / mbtree=0 / bitrate=3369 / ratetol=1.0 / qcomp=0.70 / qpmin=0 / qpmax=69 / qpstep=4 / cplxblur=20.0 / qblur=0.5 / vbv_maxrate=50000 / vbv_bufsize=62500 / nal_hrd=none / filler=0 / ip_ratio=1.40 / pb_ratio=1.30 / aq=3:0.80
Language : English
Default : Yes
Forced : No

Audio
ID : 2
Format : AC-3
Format/Info : Audio Coding 3
Commercial name : Dolby Digital
Codec ID : A_AC3
Duration : 1 h 48 min
Bit rate mode : Constant
Bit rate : 448 kb/s
Channel(s) : 6 channels
Channel layout : L R C LFE Ls Rs
Sampling rate : 48.0 kHz
Frame rate : 31.250 FPS (1536 SPF)
Bit depth : 16 bits
Compression mode : Lossy
Stream size : 349 MiB (12%)
Title : DUB
Language : Russian
Service kind : Complete Main
Default : Yes
Forced : No

Text #1
ID : 3
Format : UTF-8
Codec ID : S_TEXT/UTF8
Codec ID/Info : UTF-8 Plain Text
Duration : 1 h 42 min
Bit rate : 105 b/s
Count of elements : 1134
Stream size : 79.6 KiB (0%)
Title : RUS
Language : Russian
Default : No
Forced : No

Text #2
ID : 4
Format : UTF-8
Codec ID : S_TEXT/UTF8
Codec ID/Info : UTF-8 Plain Text
Duration : 1 h 42 min
Bit rate : 46 b/s
Count of elements : 1119
Stream size : 35.2 KiB (0%)
Title : ENG
Language : English
Default : No
Forced : No

Menu
00:00:00.000 : :Глава 1
00:02:38.658 : :Глава 2
00:10:20.995 : :Глава 3
00:13:42.238 : :Глава 4
00:20:56.380 : :Глава 5
00:23:24.403 : :Глава 6
00:29:59.256 : :Глава 7
00:33:59.996 : :Глава 8
00:36:15.047 : :Глава 9
00:43:01.161 : :Глава 10
00:47:26.552 : :Глава 11
00:51:12.528 : :Глава 12
00:56:21.920 : :Глава 13
01:01:14.129 : :Глава 14
01:04:52.847 : :Глава 15
01:10:01.948 : :Глава 16
01:17:22.304 : :Глава 17
01:19:05.991 : :Глава 18
01:24:43.704 : :Глава 19
01:29:18.186 : :Глава 20
01:33:53.962 : :Глава 21
01:36:17.604 : :Глава 22
01:41:25.705 : :Глава 23
01:42:54.710 : :Глава 24


_________________
Проголосуй за трекер Открытый торрент трекер - RUS-MEDIA.ORG

Проголосуй Открытый торрент трекер - RUS-MEDIA.ORG


Скачать книги и аудио книги через торрент


Вернуться к началу
 Профиль Отправить личное сообщение  
 
   Похожие торренты   Автор   Торрент   Размер 
В этой теме нет новых непрочитанных сообщений. Краа! Морской монстр / Kraa! The Sea Monster [фантастика, комедия, 1998] DVDRip-AVC, Avo

salma3

0 | 0

1.6 ГБ

В этой теме нет новых непрочитанных сообщений. Кодекс Готти / Gotti [драма, криминал, биография, 2018] BDRip-AVC, Dub [iTunes]

salma3

45 | 3

2.71 ГБ

В этой теме нет новых непрочитанных сообщений. 21 грамм / 21 Grams [Триллер, драма, криминал, 2003] BDRip-AVC, Dub

salma3

0 | 0

3.77 ГБ

В этой теме нет новых непрочитанных сообщений. Чёрный клановец / BlacKkKlansman [комедия, криминал, биография, 2018] BDRip-AVC, Dub [iTunes]

salma3

0 | 0

2.47 ГБ

В этой теме нет новых непрочитанных сообщений. Охота на Веронику / Veronica Guerin [триллер, драма, криминал, биография, 2003] BDRip 1080p, Mvo

K15

0 | 0

7.02 ГБ

В этой теме нет новых непрочитанных сообщений. S.W.A.T.: Спецназ города ангелов / S.W.A.T. [боевик, триллер, криминал, 2003] BDRip-AVC, Dub

salma3

0 | 0

744.83 МБ

В этой теме нет новых непрочитанных сообщений. Признания опасного человека / Confessions of a Dangerous Mind [триллер, криминал, биография, 2002] BDRip-AVC, Dub

salma3

0 | 0

2.18 ГБ


Начать новую тему Ответить на тему  [ 1 сообщение ] 




Для Мосгорсуда, Роскомнадзора и рекламодателей:: rstracker[собака]yandex.ru
cron
cron