COVID-19 - Последняя информация о коронавирусе на сайте Минздрава




Торрент файл
скачать торрент магнет ссылка Добавлен: 20 апр 2019, 20:35
Размер: 2.18 ГБ
Сидеров: 0
Личеров: 0
Статус: (salma3)
Автор

СообщениеДобавлено: 20 апр 2019, 20:35 

Не в сети
Супермодератор
Аватара пользователя
Дата регистрации:
15 фев 2012, 16:44
Возраст: 32
Спасибо: 8304 / 2148
Сообщения: 97121
Год выхода: 1989
Жанр: боевик, триллер, фэнтези
Режиссер: Тим Бёртон

В ролях: Майкл Китон, Джек Николсон, Ким Бейсингер, Роберт Вул, Пэт Хингл, Билли Ди Уильямс, Майкл Гоф, Джек Пэланс, Джерри Холл, Трейси Уолтер и др.

О фильме:
В раннем детстве юный наследник Брюс Уэйн стал свидетелем убийства своих родителей и после этого стал ненавидеть преступность. В Готэме все чаще случались насилие, ограбления и убийства. В трудное для города время появляется герой, способный укротить любого преступника и заставить его бежать в страхе. Таинственный мститель, герой по прозвищу «Бэтмен», встал на защиту слабых и начал свою борьбу с преступниками. Раскрыть таинственность героя, узнать, кто скрывается за маской героя хотят журналистка Вики Вейл и репортер Нокс. Тем временем один из преступников, уходя от полицейской погони, упал в чан с химикатами и превратился в Джокера, который стал угрозой для города. Только Бэтмен может ему помешать…



Страна: США, Великобритания
Продолжительность: 02:06:19
Перевод: Дубляж, двухголосный, авторский

Файл
Кодек: h.264
Качество: BDRip-AVC
Видео: MPEG-4, 1080x608, 23.976 fps ~1895 kbps
Звук:
1) HE-AAC 6 ch, 48 kHz ~192 kbps - Dub [CCE]
2) HE-AAC 2 ch, 48 kHz ~64 kbps - DVO [НТВ]
3) HE-AAC 2 ch, 48 kHz ~64 kbps - AVO [Гаврилов]
4) HE-AAC 2 ch, 48 kHz ~64 kbps - AVO [Горчаков]
5) HE-AAC 6 ch, 48 kHz ~192 kbps - Original
Субтитры: Русские, английские

Media Info:
General
Unique ID : 167288308989701271380860237371628623608 (0x7DDA8E6DCCD5438FB84E52FB374096F8)
Format : Matroska
Format version : Version 4
File size : 2.18 GiB
Duration : 2 h 6 min
Overall bit rate : 2 473 kb/s
Movie name : Batman (1989) BDRip-AVC от DrVampir
Encoded date : UTC 2019-04-17 19:16:46
Writing application : mkvmerge v32.0.0 ('Astral Progressions') 64-bit
Writing library : libebml v1.3.7 + libmatroska v1.5.0 / Lavf58.20.100
Cover : Yes
Attachments : Cover.jpg

Video
ID : 1
Format : AVC
Format/Info : Advanced Video Codec
Format profile : High@L4.1
Format settings : CABAC / 11 Ref Frames
Format settings, CABAC : Yes
Format settings, Reference : 11 frames
Codec ID : V_MPEG4/ISO/AVC
Duration : 2 h 6 min
Bit rate : 1 895 kb/s
Width : 1 080 pixels
Height : 608 pixels
Display aspect ratio : 16:9
Frame rate mode : Constant
Frame rate : 23.976 (24000/1001) FPS
Color space : YUV
Chroma subsampling : 4:2:0
Bit depth : 8 bits
Scan type : Progressive
Bits/(Pixel*Frame) : 0.120
Stream size : 1.67 GiB (77%)
Title : MPEG-4, 1080x608, 23.976 fps ~1895 kbps
Writing library : x264 core 157 r2935 545de2f
Encoding settings : cabac=1 / ref=11 / deblock=1:-2:-2 / analyse=0x3:0x133 / me=umh / subme=11 / psy=1 / psy_rd=1.00:0.10 / mixed_ref=1 / me_range=56 / chroma_me=1 / trellis=2 / 8x8dct=1 / cqm=0 / deadzone=21,11 / fast_pskip=0 / chroma_qp_offset=-3 / threads=6 / lookahead_threads=1 / sliced_threads=0 / nr=0 / decimate=0 / interlaced=0 / bluray_compat=0 / constrained_intra=0 / bframes=16 / b_pyramid=2 / b_adapt=2 / b_bias=0 / direct=3 / weightb=1 / open_gop=0 / weightp=2 / keyint=240 / keyint_min=24 / scenecut=40 / intra_refresh=0 / rc_lookahead=80 / rc=2pass / mbtree=0 / bitrate=1895 / ratetol=1.0 / qcomp=0.60 / qpmin=0 / qpmax=69 / qpstep=4 / cplxblur=20.0 / qblur=0.5 / vbv_maxrate=62500 / vbv_bufsize=78125 / nal_hrd=none / filler=0 / ip_ratio=1.40 / pb_ratio=1.30 / aq=1:1.00
Language : English
Default : Yes
Forced : No
Color range : Limited
Color primaries : BT.709
Transfer characteristics : BT.709
Matrix coefficients : BT.709

Audio #1
ID : 2
Format : AAC LC SBR
Format/Info : Advanced Audio Codec Low Complexity with Spectral Band Replication
Commercial name : HE-AAC
Format settings : Explicit
Codec ID : A_AAC-2
Duration : 2 h 6 min
Bit rate : 192 kb/s
Channel(s) : 6 channels
Channel layout : C L R Ls Rs LFE
Sampling rate : 48.0 kHz
Frame rate : 23.438 FPS (2048 SPF)
Compression mode : Lossy
Delay relative to video : 10 ms
Stream size : 173 MiB (8%)
Title : HE-AAC 6 ch, 48 kHz ~192 kbps - Dub [CCE]
Language : Russian
Default : Yes
Forced : No

Audio #2
ID : 3
Format : AAC LC SBR
Format/Info : Advanced Audio Codec Low Complexity with Spectral Band Replication
Commercial name : HE-AAC
Format settings : Explicit
Codec ID : A_AAC-2
Duration : 2 h 6 min
Bit rate : 64.0 kb/s
Channel(s) : 2 channels
Channel layout : L R
Sampling rate : 48.0 kHz
Frame rate : 23.438 FPS (2048 SPF)
Compression mode : Lossy
Delay relative to video : 10 ms
Stream size : 57.8 MiB (3%)
Title : HE-AAC 2 ch, 48 kHz ~64 kbps - DVO [НТВ]
Language : Russian
Default : No
Forced : No

Audio #3
ID : 4
Format : AAC LC SBR
Format/Info : Advanced Audio Codec Low Complexity with Spectral Band Replication
Commercial name : HE-AAC
Format settings : Explicit
Codec ID : A_AAC-2
Duration : 2 h 6 min
Bit rate : 63.8 kb/s
Channel(s) : 6 channels
Channel layout : C L R Ls Rs LFE
Sampling rate : 48.0 kHz
Frame rate : 23.438 FPS (2048 SPF)
Compression mode : Lossy
Delay relative to video : 10 ms
Stream size : 57.6 MiB (3%)
Title : HE-AAC 2 ch, 48 kHz ~64 kbps - AVO [Гаврилов]
Language : Russian
Default : No
Forced : No

Audio #4
ID : 5
Format : AAC LC SBR
Format/Info : Advanced Audio Codec Low Complexity with Spectral Band Replication
Commercial name : HE-AAC
Format settings : Explicit
Codec ID : A_AAC-2
Duration : 2 h 6 min
Bit rate : 64.0 kb/s
Channel(s) : 2 channels
Channel layout : L R
Sampling rate : 48.0 kHz
Frame rate : 23.438 FPS (2048 SPF)
Compression mode : Lossy
Delay relative to video : 10 ms
Stream size : 57.8 MiB (3%)
Title : HE-AAC 2 ch, 48 kHz ~64 kbps - AVO [Горчаков]
Language : Russian
Default : No
Forced : No

Audio #5
ID : 6
Format : AAC LC SBR
Format/Info : Advanced Audio Codec Low Complexity with Spectral Band Replication
Commercial name : HE-AAC
Format settings : Explicit
Codec ID : A_AAC-2
Duration : 2 h 6 min
Bit rate : 192 kb/s
Channel(s) : 6 channels
Channel layout : C L R Ls Rs LFE
Sampling rate : 48.0 kHz
Frame rate : 23.438 FPS (2048 SPF)
Compression mode : Lossy
Delay relative to video : 10 ms
Stream size : 173 MiB (8%)
Title : HE-AAC 6 ch, 48 kHz ~192 kbps - Original
Language : English
Default : No
Forced : No

Text #1
ID : 7
Format : ASS
Codec ID : S_TEXT/ASS
Codec ID/Info : Advanced Sub Station Alpha
Duration : 2 h 0 min
Bit rate : 72 b/s
Count of elements : 978
Compression mode : Lossless
Stream size : 64.5 KiB (0%)
Language : Russian
Default : No
Forced : No

Text #2
ID : 8
Format : ASS
Codec ID : S_TEXT/ASS
Codec ID/Info : Advanced Sub Station Alpha
Duration : 2 h 0 min
Bit rate : 72 b/s
Count of elements : 1264
Compression mode : Lossless
Stream size : 63.9 KiB (0%)
Language : English
Default : No
Forced : No

Menu
00:00:00.000 : :Chapter 1
00:02:32.944 : :Chapter 2
00:07:03.882 : :Chapter 3
00:09:26.858 : :Chapter 4
00:12:22.325 : :Chapter 5
00:14:42.131 : :Chapter 6
00:17:03.981 : :Chapter 7
00:20:05.454 : :Chapter 8
00:23:58.062 : :Chapter 9
00:27:05.999 : :Chapter 10
00:30:25.615 : :Chapter 11
00:34:12.509 : :Chapter 12
00:36:13.797 : :Chapter 13
00:38:24.552 : :Chapter 14
00:41:06.297 : :Chapter 15
00:45:06.746 : :Chapter 16
00:48:07.051 : :Chapter 17
00:50:51.715 : :Chapter 18
00:54:19.131 : :Chapter 19
00:57:54.346 : :Chapter 20
00:59:34.321 : :Chapter 21
01:06:38.036 : :Chapter 22
01:12:24.173 : :Chapter 23
01:16:29.210 : :Chapter 24
01:18:19.111 : :Chapter 25
01:21:10.699 : :Chapter 26
01:25:30.083 : :Chapter 27
01:27:24.990 : :Chapter 28
01:29:32.951 : :Chapter 29
01:33:58.049 : :Chapter 30
01:35:50.370 : :Chapter 31
01:38:15.807 : :Chapter 32
01:42:43.866 : :Chapter 33
01:46:34.263 : :Chapter 34
01:50:10.979 : :Chapter 35
01:53:20.210 : :Chapter 36
01:59:43.218 : :Chapter 37
02:02:30.260 : :Chapter 38


_________________
Проголосуй за трекер Открытый торрент трекер - RUS-MEDIA.ORG

Проголосуй Открытый торрент трекер - RUS-MEDIA.ORG


Скачать книги и аудио книги через торрент


Вернуться к началу
 Профиль Отправить личное сообщение  
 
   Похожие торренты   Автор   Торрент   Размер 
В этой теме нет новых непрочитанных сообщений. Бэтмен / Batman [боевик, триллер, фэнтези, 1989] BDRip 720p, Dub

salma3

0 | 0

7.76 ГБ

В этой теме нет новых непрочитанных сообщений. Бэтмен / Batman [боевик, триллер, фэнтези, 1989] BDRemux 1080p, Dub

salma3

0 | 0

29.27 ГБ

В этой теме нет новых непрочитанных сообщений. Бэтмен Навсегда / Batman Forever [фэнтези, боевик, приключения, 1995] BDRip-AVC, Dub

salma3

0 | 0

2.18 ГБ

В этой теме нет новых непрочитанных сообщений. Бэтмен Возвращается / Batman Returns [боевик, фантастика, 1992] BDRip-AVC, Dub

salma3

0 | 0

2.18 ГБ

В этой теме нет новых непрочитанных сообщений. Бэтмен навсегда / Batman Forever [Фэнтези, боевик, триллер, 1995] UHD BDRemux 2160p, Dub [Лицензия] [4K]

salma3

1 | 1

70.89 ГБ

В этой теме нет новых непрочитанных сообщений. Бэтмен навсегда / Batman Forever [Фэнтези, боевик, триллер, 1995] UHD Blu-ray 2160p, Dub [Лицензия] [4K]

salma3

0 | 1

81.48 ГБ

В этой теме нет новых непрочитанных сообщений. Бэтмен возвращается / Batman Returns [Фэнтези, боевик, 1992] UHD BDRemux 2160p, Dub [Лицензия] [4K]

salma3

0 | 0

67.96 ГБ


Начать новую тему Ответить на тему  [ 1 сообщение ] 




Для Мосгорсуда, Роскомнадзора и рекламодателей:: rstracker[собака]yandex.ru
cron