Торрент файл
скачать торрент магнет ссылка Добавлен: 28 апр 2011, 23:29
Размер: 2.17 ГБ
Сидеров: 38
Личеров: 10
Автор

СообщениеДобавлено: 28 апр 2011, 23:29 

Не в сети
Супермодератор
Аватара пользователя
Дата регистрации:
22 май 2010, 11:03
Возраст: 32
Спасибо: 7642 / 13
Сообщения: 49895
Доктор Дулиттл / Doctor Dolittle

Перевод: Профессиональный (полное дублирование)
Субтитры: есть (русские, английские)
Формат: HDRip, MKV, H.264, AC3
Страна: США
Режиссер: Бетти Томас
Жанр: комедия, семейный
Продолжительность: 01:25:22
Год выпуска: 1998

В ролях: Эдди Мерфи, Осси Дэвис, Оливер Плэтт, Питер Бойл, Ричард Шифф, Кристен Уилсон, Джеффри Тэмбор, Кайла Прэтт, Рэйвен, Стивен Гилборн

Описание: У доктора Джона Дулиттла есть, кажется, все, о чем только можно мечтать: удавшаяся карьера, красивая жена и две прелестные дочки. В довершение ко всему он вот — вот заключит самую большую в своей жизни финансовую сделку. Короче, доктор Дулиттл — настоящий счастливчик. И вдруг случается ужасное: доктор Дулиттл замечает, что в нем просыпается когда — то присущая ему способность… говорить на языке зверей. Дулиттл в прямом смысле слова понимает зов природы и может на него ответить. Отныне его ждет настоящая «собачья жизнь». Четвероногие и пернатые пациенты, прослышав про чудесного целителя, не дают ему прохода дома и на работе: «Кончай болтать, лечи!»…



Видео: 1024x550 (1.86:1), 23.976 fps, MPEG-4 AVC ~2924 kbps avg, 0.217 bit/pixel
Аудио #1: Русский: 48 kHz, AC3 Dolby Digital, 2 ch, ~192.00 kbps avg [Профессиональный (полное дублирование)]
Аудио #2: Русский: 48 kHz, AC3 Dolby Digital, 3/2 (L,C,R,l,r) + LFE ch, ~448.00 kbps avg [Профессиональный многоголосый]

Релиз группы | by MaxVeLL




Общее
Уникальный идентификатор: 220643709526079802488887587014821340326 (0xA5FE6EC6D95AFFA6BA3404251C8CE4A6)
Полное имя: D:\Doktor.dulittl.1998.x264.BDRip.MKV.x264.DHT-Movies.mkv
Формат: Matroska
Размер файла: 2,17 Гбайт
Продолжительность: 1 ч. 25 м.
Общий поток: 3636 Кбит/сек
Название фильма: BDRip-AVC by MaxVeLL [DHT-Movies]
Дата кодирования: UTC 2011-04-21 12:58:35
Программа кодирования: mkvmerge v4.6.0 ('Still Crazy After All These Years') сборка от Mar 10 2011 02:50:32
Библиотека кодирования: libebml v1.2.0 + libmatroska v1.1.0

Видео
Идентификатор: 1
Формат: AVC
Формат/Информация: Advanced Video Codec
Профиль формата:
Параметр CABAC формата: Да
Параметр ReFrames формата: 9 кадры
Параметры GOP формата: M=4, N=33
Идентификатор кодека: V_MPEG4/ISO/AVC
Продолжительность: 1 ч. 25 м.
Битрейт: 2924 Кбит/сек
Ширина: 1024 пикс.
Высота: 550 пикс.
Соотношение сторон: 1,862
Частота кадров: 23,976 кадр/сек
Стандарт вещания: NTSC
Цветовое пространство: YUV
Подвыборка цветности: 4:2:0
Битовая глубина: 8 бит
Тип развёртки: Прогрессивная
Бит/(Пиксели*Кадры): 0.217
Размер потока: 1,74 Гбайт (80%)
Язык: English
Основные цвета: BT.709-5, BT.1361, IEC 61966-2-4, SMPTE RP177
Характеристики трансфера: BT.709-5, BT.1361
Коэффициенты матрицы: BT.709-5, BT.1361, IEC 61966-2-4 709, SMPTE RP177

Аудио #1
Идентификатор: 2
Формат: AC-3
Формат/Информация: Audio Coding 3
Расширение режима: CM (complete main)
Идентификатор кодека: A_AC3
Продолжительность: 1 ч. 25 м.
Вид битрейта: Постоянный
Битрейт: 192 Кбит/сек
Канал(ы): 2 канала(ов)
Расположение каналов: Front: L R
Частота: 48,0 КГц
Битовая глубина: 16 бит
Метод сжатия: С потерями
Размер потока: 117 Мбайт (5%)
Заголовок: Дубляж
Язык: Russian

Аудио #2
Идентификатор: 3
Формат: AC-3
Формат/Информация: Audio Coding 3
Расширение режима: CM (complete main)
Идентификатор кодека: A_AC3
Продолжительность: 1 ч. 25 м.
Вид битрейта: Постоянный
Битрейт: 448 Кбит/сек
Канал(ы): 6 канала(ов)
Расположение каналов: Front: L C R, Side: L R, LFE
Частота: 48,0 КГц
Битовая глубина: 16 бит
Метод сжатия: С потерями
Размер потока: 274 Мбайт (12%)
Заголовок: Профессиональный (многоголосый)
Язык: Russian

Текст #1
Идентификатор: 4
Формат: UTF-8
Идентификатор кодека: S_TEXT/UTF8
Идентификатор кодека/Информация: UTF-8 Plain Text
Язык: Russian

Текст #2
Идентификатор: 5
Формат: UTF-8
Идентификатор кодека: S_TEXT/UTF8
Идентификатор кодека/Информация: UTF-8 Plain Text
Язык: English








реклама партнёра


Вернуться к началу
 Профиль Отправить личное сообщение  
 
   Похожие торренты   Автор   Торрент   Размер 
В этой теме нет новых непрочитанных сообщений. Доктор Дулиттл 5 / Dr. Dolittle: A Tinsel Town Tail [комедия, семейный, 2009] BDRip, Mvo [Лицензия]

salma3

38 | 0

1.46 ГБ

В этой теме нет новых непрочитанных сообщений. Доктор Кто, 1-7 сезоны 1-102 серии из 102 / Doctor Who (Грэм Харпер, Крис Чибнелл) [2005-2013, фантастика, приключения, комедия, семейный, DVDRip/HDTVRip/WEB-DLRip, [СТС, BaibaKo]]

Dracon

74 | 256

52.38 ГБ

В этой теме нет новых непрочитанных сообщений. Доктор Стрэндж / Doctor Strange [Фантастика, фэнтези, боевик, приключения, 2016] HDRip, Dub [КПК] [Лицензия]

salma3

20 | 9

405.39 МБ

В этой теме нет новых непрочитанных сообщений. Доктор Кто / Doctor Who [S08] (Бен Уитли) [2014, фантастика, комедия, WEB-DLRip | BaibaKo]

Nickolas3435

492 | 379

7.95 ГБ

В этой теме нет новых непрочитанных сообщений. Доктор Кто / Doctor Who [08x01-03 из 12] (Бен Уитли) [2014, фантастика, комедия, WEB-DL 720p | BaibaKo]

Nickolas3435

48 | 52

5.69 ГБ

В этой теме нет новых непрочитанных сообщений. Доктор Кто / Doctor Who [08x01 из 12] (Бен Уитли) [2014, фантастика, комедия, WEB-DLRip | BaibaKo]

Nickolas3435

357 | 14

1.02 ГБ

В этой теме нет новых непрочитанных сообщений. Доктор Кто / Doctor Who / 10 сезон 1-03 серия из 12 [фантастика, комедия, 2017] WEB-DLRip, Mvo [Baibako]

salma3

35 | 49

2.35 ГБ


Начать новую тему Ответить на тему  [ 1 сообщение ] 




Для Мосгорсуда, Роскомнадзора и рекламодателей:: mosgorsud-torrent[собачка]yandex.ru