Торрент файл
скачать торрент магнет ссылка Добавлен: 28 апр 2011, 23:22
Размер: 1.76 ГБ
Сидеров: 122
Личеров: 8
Автор

СообщениеДобавлено: 28 апр 2011, 23:22 

Не в сети
Супермодератор
Аватара пользователя
Дата регистрации:
22 май 2010, 11:03
Возраст: 31
Спасибо: 7509 / 13
Сообщения: 49940
Дурдом на колесах / RV


Перевод: Профессиональный (многоголосый, закадровый), cубтитры: отсутствуют
Формат: HDRip-AVC, MKV, H.264, AC3
Страна: США, Германия, Великобритания
Режиссер: Барри Зонненфельд
Жанр: комедия, приключения, семейный
Продолжительность: 01:38:47
Год выпуска: 2006

В ролях: Робин Уильямс, Шерил Хайнс, Джош Хатчерсон, Джефф Дэниелс, Кристин Ченоуэт, Джоанна «ДжоДжо» Левески

Описание: Трудоголик Боб Мунро, его жена Джейми, их 15-летняя дочь Касси и 12-летний сын Карл определённо нуждаются в том, чтобы проводить больше времени вместе. Дав обещание отправиться всей семьей на отдых на Гавайи, Боб внезапно меняет планы, не ставя остальных в известность об этом. И вместо недели в тропическом раю они направляются в дорожное путешествие в Колорадо в специально приспособленном для таких поездок трейлере (кратко именуемом RV). Однако, продуманный план Боба по воссоединению семьи, затащивший сопротивляющихся и негодующих жену и детей в RV, моментально даёт трещину. Бездарные попытки Боба управлять огромным неповоротливым трейлером встречают молчаливое пренебрежение со стороны его семьи. Жизнь в RV разительно отличается от их комфортабельной жизни в Лос-Анджелесе, и каждая попытка Боба принести атмосферу отдыха и уюта угрожает ещё больше разъединить их. Достигнув лагеря отдыха, Мунро знакомятся с семьёй Горнике, которые, к их немалому раздражению, испытывают немалое удовольствие от беззаботных постоянных странствий в RV. Чем больше они стараются избежать любого контакта с ними, тем больше их пути пересекаются. Но череда бедствий неожиданно способствует объединению даже самых отдалившихся друг от друга членов семьи, и каждый неудачный опыт невольно помогает им снова найти друг друга и стать полноценной семьёй.



Видео: 1024 x 424 (2.415), 23.976 fps, AVC, , х264, ~ 1 661 Kbps Kbps, 0.160 bit/pixel
Аудио: #1:Русский48 kHz, AC3 Dolby Digital, 3/2 (L,C,R,l,r) + LFE ch, ~448 kbps [Профессиональный (многоголосый)]
Аудио: #2:Английский 48 kHz, AC3 Dolby Digital, 3/2 (L,C,R,l,r) + LFE ch, ~448 kbps [Оригинал]

General
Unique ID: 178298045398743463202037853010645950255 (0x8622F457E0D427C8852A770CC4831F2F)
Complete name: E:\РЕЛИЗЫ\Все релизы 12\durdom_na_kolesah_[tfile.ru].mkv
Format: Matroska
File size: 1.76 GiB
Duration: 1h 38mn
Overall bit rate: 2 556 Kbps
Movie name: NovaLan (Vladislav71)
Encoded date: UTC 2011-04-12 16:05:35
Writing application: mkvmerge v4.0.0 ('The Stars were mine') сборка от Jun6 2010 16:18:42
Writing library: libebml v1.0.0 + libmatroska v1.0.0

Video
ID: 1
Format: AVC
Format/Info: Advanced Video Codec
Format profile:
Format settings, CABAC: Yes
Format settings, ReFrames: 8 frames
Codec ID: V_MPEG4/ISO/AVC
Duration: 1h 38mn
Bit rate: 1 661 Kbps
Width: 1 024 pixels
Height: 424 pixels
Display aspect ratio: 2.40:1
Frame rate: 23.976 fps
Color space: YUV
Chroma subsampling: 4:2:0
Bit depth: 8 bits
Scan type: Progressive
Bits/(Pixel*Frame): 0.160
Stream size: 1.11 GiB (63%)
Writing library: x264 core 92 r1510 33d382a
Encoding settings: cabac=1 / ref=8 / deblock=1:-1:-1 / analyse=0x3:0x133 / me=umh / subme=7 / psy=1 / psy_rd=1.00:0.10 / mixed_ref=1 / me_range=16 / chroma_me=1 / trellis=2 / 8x8dct=1 / cqm=0 / deadzone=21,11 / fast_pskip=0 / chroma_qp_offset=-3 / threads=3 / sliced_threads=0 / nr=0 / decimate=1 / interlaced=0 / constrained_intra=0 / bframes=3 / b_pyramid=2 / b_adapt=2 / b_bias=0 / direct=3 / wpredb=1 / wpredp=2 / keyint=250 / keyint_min=25 / scenecut=40 / intra_refresh=0 / rc_lookahead=50 / rc=2pass / mbtree=1 / bitrate=1661 / ratetol=1.0 / qcomp=0.60 / qpmin=10 / qpmax=51 / qpstep=4 / cplxblur=20.0 / qblur=0.5 / ip_ratio=1.40 / aq=1:1.00

Audio #1
ID: 2
Format: AC-3
Format/Info: Audio Coding 3
Mode extension: CM (complete main)
Codec ID: A_AC3
Duration: 1h 38mn
Bit rate mode: Constant
Bit rate: 448 Kbps
Channel(s): 6 channels
Channel positions: Front: L C R, Side: L R, LFE
Sampling rate: 48.0 KHz
Bit depth: 16 bits
Compression mode: Lossy
Stream size: 317 MiB (18%)
Language: Russian

Audio #2
ID: 3
Format: AC-3
Format/Info: Audio Coding 3
Mode extension: CM (complete main)
Codec ID: A_AC3
Duration: 1h 38mn
Bit rate mode: Constant
Bit rate: 448 Kbps
Channel(s): 6 channels
Channel positions: Front: L C R, Side: L R, LFE
Sampling rate: 48.0 KHz
Bit depth: 16 bits
Compression mode: Lossy
Stream size: 317 MiB (18%)
Language: English
























реклама партнёра


Вернуться к началу
 Профиль Отправить личное сообщение  
 
   Похожие торренты   Автор   Торрент   Размер 
В этой теме нет новых непрочитанных сообщений. Дурдом на колесах / Runaway Vacation [комедия, приключения, семейный, 2006] BDRip, Mvo

salma3

92 | 12

1.45 ГБ

В этой теме нет новых непрочитанных сообщений. Повар на колесах / Chef [комедия, драма, семейный, 2014] HDRip, Dub [НТВ+]

Dracon

2295 | 93

1.37 ГБ

В этой теме нет новых непрочитанных сообщений. Повар на колесах / Chef [комедия, драма, семейный, 2014] HDRip, Dub [Лицензия]

Dracon

2116 | 90

1.46 ГБ

В этой теме нет новых непрочитанных сообщений. Повар на колесах / Chef [комедия, драма, семейный, 2014] DVD5, Dub [Лицензия]

Dracon

71 | 9

4.3 ГБ

В этой теме нет новых непрочитанных сообщений. Повар на колесах / Chef [комедия, драма, семейный, 2014] BDRip 720p, Dub [НТВ+]

Dracon

305 | 8

5.76 ГБ

В этой теме нет новых непрочитанных сообщений. Приключения мышонка Переса / El raton Perez / The Hairy Tooth Fair [мультфильм, комедия, семейный, 2006] HDRip, Mvo

salma3

15 | 3

1.46 ГБ

В этой теме нет новых непрочитанных сообщений. Повар на колесах / Chef [комедия, драма, семейный, 2014] Blu-Ray Remux 1080p, Dub [Лицензия]

Dracon

44 | 7

20.35 ГБ


Начать новую тему Ответить на тему  [ 1 сообщение ] 




Для Мосгорсуда, Роскомнадзора и рекламодателей:: mosgorsud-torrent[собачка]yandex.ru