Торрент файл
скачать торрент магнет ссылка Добавлен: 28 апр 2011, 23:22
Размер: 1.36 ГБ
Сидеров: 132
Личеров: 12
Автор

СообщениеДобавлено: 28 апр 2011, 23:22 

Не в сети
Супермодератор
Аватара пользователя
Дата регистрации:
22 май 2010, 11:03
Возраст: 31
Спасибо: 7509 / 13
Сообщения: 49940
Знакомство с Факерами 2 / Little Fockers


Перевод: Профессиональный (полное дублирование)
Субтитры: отсутствуют
Формат: HDRip-AVC, MKV, H.264, AC3
Страна: США
Режиссер: Пол Вайц
Жанр: Комедия
Продолжительность: 01:37:47
Год выпуска: 2010

В ролях: Роберт Де Ниро, Бен Стиллер, Оуэн Уилсон, Дастин Хоффман, Джессика Альба, Барбара Стрейзанд, Эрика Дженсен, Блайт Даннер, Тери Поло, Лора Дерн и др.

Описание: 10 лет, двое детей и бесчисленные испытания понадобились Грегу для того, чтобы тесть частично примирился с его существованием. Но после того как Грег, оказавшись на мели, находит себе халтуру в фармацевтической компании, подозрения Джека увеличиваются в геометрической прогрессии. Когда все семейство Грега и Пэм, включая ее бывшего возлюбленного Кевина, соберутся на день рождения близнецов, Грегу придется доказать скептично настроенному Джеку, что он настоящий хозяин в доме. Недоразумения, слежка, миссии под прикрытием — как все это поможет Грегу пройти последнее испытание и стать новым главой семьи? Или возникшее между родственниками доверие будет подорвано… к лучшему?



Видео: 720 x 384 (1.875:1), 23.976 fps, AVC, , x264, ~ 1 545 Kbps, 0.233 bit/pixel

Аудио: 48.0 KHz, AC3 Dolby Digital, 3/2 (L,C,R,l,r) + LFE ch, ~ 448 Kbps

[Лицензия]

General
Unique ID: 188148864275354309982105127245174273739 (0x8D8C2736378C0B2890C69BCBD38BF6CB)
Complete name: D:\Relises\znakomstvo_s_fakerami_dva_[tfile.ru].mkv
Format: Matroska
File size: 1.36 GiB
Duration: 1h 37mn
Overall bit rate: 1 991 Kbps
Encoded date: UTC 2011-04-14 17:46:20
Writing application: mkvmerge v2.9.5 ('Tu es le seul') built on Jun7 2009 11:07:07
Writing library: libebml v0.7.7 + libmatroska v0.8.1

Video
ID: 1
Format: AVC
Format/Info: Advanced Video Codec
Format profile:
Format settings, CABAC: Yes
Format settings, ReFrames: 8 frames
Codec ID: V_MPEG4/ISO/AVC
Duration: 1h 37mn
Bit rate: 1 545 Kbps
Width: 720 pixels
Height: 384 pixels
Display aspect ratio: 1.875
Frame rate: 23.976 fps
Color space: YUV
Chroma subsampling: 4:2:0
Bit depth: 8 bits
Scan type: Progressive
Bits/(Pixel*Frame): 0.233
Stream size: 1.03 GiB (76%)
Writing library: x264 core 92 r1510 33d382a
Encoding settings: cabac=1 / ref=8 / deblock=1:-1:-1 / analyse=0x3:0x133 / me=umh / subme=7 / psy=1 / psy_rd=1.00:0.10 / mixed_ref=1 / me_range=16 / chroma_me=1 / trellis=2 / 8x8dct=1 / cqm=0 / deadzone=21,11 / fast_pskip=0 / chroma_qp_offset=-3 / threads=3 / sliced_threads=0 / nr=0 / decimate=1 / interlaced=0 / constrained_intra=0 / bframes=3 / b_pyramid=2 / b_adapt=2 / b_bias=0 / direct=3 / wpredb=1 / wpredp=2 / keyint=250 / keyint_min=25 / scenecut=40 / intra_refresh=0 / rc_lookahead=50 / rc=2pass / mbtree=1 / bitrate=1545 / ratetol=1.0 / qcomp=0.60 / qpmin=10 / qpmax=51 / qpstep=4 / cplxblur=20.0 / qblur=0.5 / ip_ratio=1.40 / aq=1:1.00

Audio
ID: 2
Format: AC-3
Format/Info: Audio Coding 3
Mode extension: CM (complete main)
Codec ID: A_AC3
Duration: 1h 37mn
Bit rate mode: Constant
Bit rate: 448 Kbps
Channel(s): 6 channels
Channel positions: Front: L C R, Side: L R, LFE
Sampling rate: 48.0 KHz
Bit depth: 16 bits
Compression mode: Lossy
Stream size: 313 MiB (23%)









реклама партнёра


Вернуться к началу
 Профиль Отправить личное сообщение  
 
   Похожие торренты   Автор   Торрент   Размер 
В этой теме нет новых непрочитанных сообщений. Знакомство с родителями / Meet the Parents [мелодрама, комедия, 2000] Blu-ray EUR 1080p, Dub+Avo+Sub

salma3

32 | 38

37.77 ГБ

В этой теме нет новых непрочитанных сообщений. Моцарт в джунглях / Mozart in the Jungle [1 сезон 1-10 серии из 10] (Пол Вайц) [комедия, музыка, 2014] WEBRip [AlexFilm]

Dracon

55 | 29

3.19 ГБ

В этой теме нет новых непрочитанных сообщений. Моцарт в джунглях / Mozart in the Jungle [1 сезон 1-10 серии из 10] (Пол Вайц) [комедия, музыка, 2014] WEBRip 720p, Dvo+Sub [AlexFilm]

Dracon

22 | 11

7.69 ГБ

В этой теме нет новых непрочитанных сообщений. Специалист. Знакомство с Windows 10 и Windows Server (М. Соколов) [2014, Обучающее видео, PCRec]

Nickolas3435

267 | 15

1.68 ГБ

В этой теме нет новых непрочитанных сообщений. Король комедии / The King of Comedy [драма, комедия, 1982] BDRip 1080p, Mvo+Dvo+Avo+Sub

salma3

43 | 43

11.44 ГБ

В этой теме нет новых непрочитанных сообщений. Имена людей / Le nom des gens [Комедия, 2010] HDRip, Mvo [НТВ+]

salma3

131 | 2

1.45 ГБ

В этой теме нет новых непрочитанных сообщений. У Мэри был барашек / Marykkundoru Kunjaadu [комедия, 2010] HDRip, Mvo [Red Media]

salma3

10 | 2

1.46 ГБ


Начать новую тему Ответить на тему  [ 1 сообщение ] 




Для Мосгорсуда, Роскомнадзора и рекламодателей:: mosgorsud-torrent[собачка]yandex.ru