Торрент файл
скачать торрент магнет ссылка Добавлен: 28 апр 2011, 23:21
Размер: 2.3 ГБ
Сидеров: 148
Личеров: 15
Автор

СообщениеДобавлено: 28 апр 2011, 23:21 

Не в сети
Супермодератор
Аватара пользователя
Дата регистрации:
22 май 2010, 11:03
Возраст: 31
Спасибо: 7508 / 13
Сообщения: 49940
Знакомство с Факерами 2 / Little Fockers


Перевод: Профессиональный (полное дублирование), cубтитры: Английские
Формат: HDRip-AVC, MKV, H.264, AC3
Страна: США
Режиссер: Пол Вайц
Жанр: комедия
Продолжительность: 01:37:40
Год выпуска: 2010

В ролях: Роберт Де Ниро, Бен Стиллер, Оуэн Уилсон, Дастин Хоффман, Джессика Альба, Барбра Стрейзанд, Эрика Дженсен, Блайт Даннер, Тери Поло, Лора Дерн

Описание: 10 лет, двое детей и бесчисленные испытания понадобились Грегу для того, чтобы тесть частично примирился с его существованием. Но после того как Грег, оказавшись на мели, находит себе халтуру в фармацевтической компании, подозрения Джека увеличиваются в геометрической прогрессии.

Когда все семейство Грега и Пэм, включая ее бывшего возлюбленного Кевина, соберутся на день рождения близнецов, Грегу придется доказать скептично настроенному Джеку, что он настоящий хозяин в доме. Недоразумения, слежка, миссии под прикрытием — как все это поможет Грегу пройти последнее испытание и стать новым главой семьи? Или возникшее между родственниками доверие будет подорвано… к лучшему?




Видео: 1280 x 720 (1.778), 23.976 fps, AVC, , х264, ~ 2 924 Kbps Kbps, 0.132 bit/pixel
Аудио: 48 kHz, AC3 Dolby Digital, 3/2 (L,C,R,l,r) + LFE ch, ~384 kbps

[лицензия]
General
Unique ID: 198520879554822444096716619123380613282 (0x9559BB0C03A3DB778BF638AB695A70A2)
Complete name: E:\РЕЛИЗЫ\Все релизы 13\znakomstvo_s_fakerami_2_[tfile.ru].mkv
Format: Matroska
File size: 2.30 GiB
Duration: 1h 37mn
Overall bit rate: 3 375 Kbps
Movie name: Знакомство с Факерами 2 / Little Fockers (2010) BDRip 720p от FireBit
Encoded date: UTC 2011-04-14 19:07:29
Writing application: mkvmerge v2.3.0 ('Freak U') built on Sep8 2008 18:32:16
Writing library: libebml v0.7.7 + libmatroska v0.8.1

Video
ID: 1
Format: AVC
Format/Info: Advanced Video Codec
Format profile:
Format settings, CABAC: Yes
Format settings, ReFrames: 3 frames
Codec ID: V_MPEG4/ISO/AVC
Duration: 1h 37mn
Bit rate: 2 924 Kbps
Width: 1 280 pixels
Height: 720 pixels
Display aspect ratio: 16:9
Frame rate: 23.976 fps
Color space: YUV
Chroma subsampling: 4:2:0
Bit depth: 8 bits
Scan type: Progressive
Bits/(Pixel*Frame): 0.132
Stream size: 1.99 GiB (87%)
Language: English

Audio
ID: 2
Format: AC-3
Format/Info: Audio Coding 3
Mode extension: CM (complete main)
Codec ID: A_AC3
Duration: 1h 37mn
Bit rate mode: Constant
Bit rate: 384 Kbps
Channel(s): 6 channels
Channel positions: Front: L C R, Side: L R, LFE
Sampling rate: 48.0 KHz
Bit depth: 16 bits
Compression mode: Lossy
Delay relative to video: 11ms
Stream size: 268 MiB (11%)
Language: Russian

Text #1
ID: 3
Format: UTF-8
Codec ID: S_TEXT/UTF8
Codec ID/Info: UTF-8 Plain Text
Language: English

Text #2
ID: 4
Format: UTF-8
Codec ID: S_TEXT/UTF8
Codec ID/Info: UTF-8 Plain Text
Language: English






















реклама партнёра


Вернуться к началу
 Профиль Отправить личное сообщение  
 
   Похожие торренты   Автор   Торрент   Размер 
В этой теме нет новых непрочитанных сообщений. Знакомство с родителями / Meet the Parents [мелодрама, комедия, 2000] Blu-ray EUR 1080p, Dub+Avo+Sub

salma3

32 | 38

37.77 ГБ

В этой теме нет новых непрочитанных сообщений. Моцарт в джунглях / Mozart in the Jungle [1 сезон 1-10 серии из 10] (Пол Вайц) [комедия, музыка, 2014] WEBRip [AlexFilm]

Dracon

55 | 29

3.19 ГБ

В этой теме нет новых непрочитанных сообщений. Моцарт в джунглях / Mozart in the Jungle [1 сезон 1-10 серии из 10] (Пол Вайц) [комедия, музыка, 2014] WEBRip 720p, Dvo+Sub [AlexFilm]

Dracon

22 | 11

7.69 ГБ

В этой теме нет новых непрочитанных сообщений. Специалист. Знакомство с Windows 10 и Windows Server (М. Соколов) [2014, Обучающее видео, PCRec]

Nickolas3435

266 | 15

1.68 ГБ

В этой теме нет новых непрочитанных сообщений. Король комедии / The King of Comedy [драма, комедия, 1982] BDRip 1080p, Mvo+Dvo+Avo+Sub

salma3

43 | 42

11.44 ГБ

В этой теме нет новых непрочитанных сообщений. Имена людей / Le nom des gens [Комедия, 2010] HDRip, Mvo [НТВ+]

salma3

131 | 2

1.45 ГБ

В этой теме нет новых непрочитанных сообщений. У Мэри был барашек / Marykkundoru Kunjaadu [комедия, 2010] HDRip, Mvo [Red Media]

salma3

10 | 2

1.46 ГБ


Начать новую тему Ответить на тему  [ 1 сообщение ] 




Для Мосгорсуда, Роскомнадзора и рекламодателей:: mosgorsud-torrent[собачка]yandex.ru