Торрент файл
скачать торрент магнет ссылка Добавлен: 28 апр 2011, 23:21
Размер: 700.11 МБ
Сидеров: 70
Личеров: 8
Автор

СообщениеДобавлено: 28 апр 2011, 23:21 

Не в сети
Супермодератор
Аватара пользователя
Дата регистрации:
22 май 2010, 11:03
Возраст: 31
Спасибо: 7615 / 13
Сообщения: 49936
Знакомство с Факерами 2 / Little Fockers


«Даже дети не помогут?»

Перевод: Профессиональный (полное дублирование) [Лицензия]
Субтитры:отсутствуют
Формат: LowHDRip-AVC, MKV, H.264, AC3

Страна: США
Режиссер: Пол Вайц
Жанр: комедия

Продолжительность: 01:37:48
Год выпуска: 2010

В ролях: Роберт Де Ниро, Бен Стиллер, Оуэн Уилсон, Дастин Хоффман, Джессика Альба, Барбра Стрейзанд, Эрика Дженсен, Блайт Даннер, Тери Поло, Лора Дерн

Описание: 10 лет, двое детей и бесчисленные испытания понадобились Грегу для того, чтобы тесть частично примирился с его существованием. Но после того как Грег, оказавшись на мели, находит себе халтуру в фармацевтической компании, подозрения Джека увеличиваются в геометрической прогрессии.

Когда все семейство Грега и Пэм, включая ее бывшего возлюбленного Кевина, соберутся на день рождения близнецов, Грегу придется доказать скептично настроенному Джеку, что он настоящий хозяин в доме. Недоразумения, слежка, миссии под прикрытием — как все это поможет Грегу пройти последнее испытание и стать новым главой семьи? Или возникшее между родственниками доверие будет подорвано… к лучшему?








Видео: 704x376 (16:9), 23.976 fps, AVC (x264)High@L5.1, ~870 Kbps avg, 0.14 bit/pixel
Аудио: 48 kHz, AC3, 6 ch, ~128 kbps avg

Рип от:TswetkOFF

Релиз-Группа:




General
Unique ID: 252256923627497478284510453501924264467 (0xBDC6EA91EFD7AF1E8A79FD5B533CCA13)
Complete name: D:\Films\znakomstvo_s_fakerami_2_[tfile.ru].mkv
Format: Matroska
File size: 700 MiB
Duration: 1h 37mn
Overall bit rate: 1 001 Kbps
Encoded date: UTC 2011-04-15 18:42:46
Writing application: mkvmerge v2.4.0 ('Fumbling Towards Ecstasy') built on Oct 11 2008 20:13:15
Writing library: libebml v0.7.7 + libmatroska v0.8.1

Video
ID: 1
Format: AVC
Format/Info: Advanced Video Codec
Format profile:
Format settings, CABAC: Yes
Format settings, ReFrames: 3 frames
Codec ID: V_MPEG4/ISO/AVC
Duration: 1h 37mn
Bit rate: 870 Kbps
Width: 704 pixels
Height: 376 pixels
Display aspect ratio: 1.872
Frame rate: 23.976 fps
Color space: YUV
Chroma subsampling: 4:2:0
Bit depth: 8 bits
Scan type: Progressive
Bits/(Pixel*Frame): 0.137
Stream size: 597 MiB (85%)
Writing library: x264 core 65 r999kMod cc51047
Encoding settings: cabac=1 / ref=3 / deblock=1:-2:-1 / analyse=0x3:0x133 / me=umh / subme=7 / psy_rd=1.0:0.0 / mixed_ref=1 / me_range=16 / chroma_me=1 / trellis=2 / 8x8dct=1 / cqm=0 / deadzone=21,11 / chroma_qp_offset=-2 / threads=2 / thread_queue=2 / nr=0 / decimate=0 / mbaff=0 / bframes=3 / b_pyramid=0 / b_adapt=1 / b_bias=0 / direct=3 / wpredb=1 / keyint=250 / keyint_min=25 / scenecut=40(pre) / rc=2pass / bitrate=870 / ratetol=1.0 / qcomp=0.60 / qpmin=10 / qpmax=51 / qpstep=4 / cplxblur=20.0 / qblur=0.5 / ip_ratio=1.40 / pb_ratio=1.30 / aq=1:1.00

Audio
ID: 2
Format: AC-3
Format/Info: Audio Coding 3
Mode extension: CM (complete main)
Codec ID: A_AC3
Duration: 1h 37mn
Bit rate mode: Constant
Bit rate: 128 Kbps
Channel(s): 6 channels
Channel positions: Front: L C R, Side: L R, LFE
Sampling rate: 48.0 KHz
Bit depth: 16 bits
Compression mode: Lossy
Stream size: 89.5 MiB (13%)














реклама партнёра


Вернуться к началу
 Профиль Отправить личное сообщение  
 
   Похожие торренты   Автор   Торрент   Размер 
В этой теме нет новых непрочитанных сообщений. Знакомство с родителями / Meet the Parents [мелодрама, комедия, 2000] Blu-ray EUR 1080p, Dub+Avo+Sub

salma3

32 | 38

37.77 ГБ

В этой теме нет новых непрочитанных сообщений. Моцарт в джунглях / Mozart in the Jungle [1 сезон 1-10 серии из 10] (Пол Вайц) [комедия, музыка, 2014] WEBRip [AlexFilm]

Dracon

55 | 29

3.19 ГБ

В этой теме нет новых непрочитанных сообщений. Моцарт в джунглях / Mozart in the Jungle [1 сезон 1-10 серии из 10] (Пол Вайц) [комедия, музыка, 2014] WEBRip 720p, Dvo+Sub [AlexFilm]

Dracon

22 | 11

7.69 ГБ

В этой теме нет новых непрочитанных сообщений. Julia Taylor - Знакомство с Трахателями 5 / Meet The Fuckers 5 (2006) DVDRip

salma3

11 | 7

500.16 МБ

В этой теме нет новых непрочитанных сообщений. Специалист. Знакомство с Windows 10 и Windows Server (М. Соколов) [2014, Обучающее видео, PCRec]

Nickolas3435

266 | 15

1.68 ГБ

В этой теме нет новых непрочитанных сообщений. Король комедии / The King of Comedy [драма, комедия, 1982] BDRip 1080p, Mvo+Dvo+Avo+Sub

salma3

43 | 43

11.44 ГБ

В этой теме нет новых непрочитанных сообщений. Француз / Un Francais (Дьястем) [2015, драма, LowHDRip] mvo

Nickolas3435

115 | 5

702.8 МБ


Начать новую тему Ответить на тему  [ 1 сообщение ] 




Для Мосгорсуда, Роскомнадзора и рекламодателей:: mosgorsud-torrent[собачка]yandex.ru