Торрент файл
скачать торрент магнет ссылка Добавлен: 28 апр 2011, 23:21
Размер: 1.74 ГБ
Сидеров: 40
Личеров: 4
Автор

СообщениеДобавлено: 28 апр 2011, 23:21 

Не в сети
Супермодератор
Аватара пользователя
Дата регистрации:
22 май 2010, 11:03
Возраст: 32
Спасибо: 7628 / 13
Сообщения: 49924
Фильм со мной в главной роли / A Film with Me in It




Перевод: Профессиональный (многоголосый, закадровый), cубтитры: отсутствуют
Формат: HDRip-AVC, MKV, H.264, AC3
Страна: Ирландия
Режиссер: Йен Фитцгиббон
Жанр: триллер, комедия
Продолжительность: 01:27:11
Год выпуска: 2008

В ролях: Дилан Моран, Марк Доэрти, Кит Аллен, Эми Хубермэн, Эшлинг ОСалливан, Дэвид О'Доэрти, Эйлин Колган, Нил Джордан, Хью ОКонор, Джонатан Риз Мейерс, Лаура Вэй, Ронан Уилмот

Описание: Двое неудачников творческих профессий — актер Марк и сценарист Пирс — практически доходят до ручки: они задолжали за квартиры за несколько месяцев, в личной жизни крах, творческие планы остаются лишь в замыслах, и просвета не видно. В одно несчастливое утро, к тому же, в квартире Марка практически одновременно падает люстра, происходит короткое замыкание и обрушивается несколько плохо закрепленных и давно требующих починки предметов домашнего обихода. С каждой поломкой в квартире появляется новый труп… Задача Пирса и Марка — незаметно избавиться от них. Ведь сами они ни в чем не виноваты, не так ли?



Видео: 1056 x 572 (1.846), 23.976 fps, AVC, , х264, ~ 2 344 Kbps Kbps, 0.162 bit/pixel
Аудио: 48 kHz, AC3 Dolby Digital, 3/2 (L,C,R,l,r) + LFE ch, ~448 kbps

General
Unique ID: 245348141862350085222647210253015120643 (0xB89455548A8DE02C9F3A7CAE6BCCFB03)
Complete name: E:\РЕЛИЗЫ\Все релизы 13\film_s_moim_uchastiem_[tfile.ru].mkv
Format: Matroska
File size: 1.74 GiB
Duration: 1h 27mn
Overall bit rate: 2 849 Kbps
Movie name: Фильм со мной в главной роли / A Film with Me in It (2008) BDRip-AVC от FireBit
Encoded date: UTC 2011-04-11 21:24:23
Writing application: mkvmerge v2.3.0 ('Freak U') built on Sep8 2008 18:32:16
Writing library: libebml v0.7.7 + libmatroska v0.8.1

Video
ID: 1
Format: AVC
Format/Info: Advanced Video Codec
Format profile:
Format settings, CABAC: Yes
Format settings, ReFrames: 11 frames
Codec ID: V_MPEG4/ISO/AVC
Duration: 1h 27mn
Bit rate: 2 344 Kbps
Width: 1 056 pixels
Height: 572 pixels
Display aspect ratio: 16:9
Frame rate: 23.976 fps
Color space: YUV
Chroma subsampling: 4:2:0
Bit depth: 8 bits
Scan type: Progressive
Bits/(Pixel*Frame): 0.162
Stream size: 1.43 GiB (82%)
Language: English

Audio
ID: 2
Format: AC-3
Format/Info: Audio Coding 3
Mode extension: CM (complete main)
Codec ID: A_AC3
Duration: 1h 27mn
Bit rate mode: Constant
Bit rate: 448 Kbps
Channel(s): 6 channels
Channel positions: Front: L C R, Side: L R, LFE
Sampling rate: 48.0 KHz
Bit depth: 16 bits
Compression mode: Lossy
Delay relative to video: 5ms
Stream size: 280 MiB (16%)
Language: Russian

Text #1
ID: 3
Format: UTF-8
Codec ID: S_TEXT/UTF8
Codec ID/Info: UTF-8 Plain Text
Language: English

Text #2
ID: 4
Format: UTF-8
Codec ID: S_TEXT/UTF8
Codec ID/Info: UTF-8 Plain Text
Language: Russian




















реклама партнёра


Вернуться к началу
 Профиль Отправить личное сообщение  
 
   Похожие торренты   Автор   Торрент   Размер 
В этой теме нет новых непрочитанных сообщений. Короткий фильм об убийстве / Krotki film o zabijaniu (1987) BDRip от Koenig | D, P

marya111

25 | 2

1.15 ГБ

В этой теме нет новых непрочитанных сообщений. Короткий фильм об убийстве / Krótki film o zabijaniu [драма, криминал, 1987] BDRemux 1080p, Dub+Mvo+Sub

salma3

5 | 21

23.1 ГБ

В этой теме нет новых непрочитанных сообщений. Короткий фильм о любви / Krótki film o milosci [драма, мелодрама, 1988] BDRip 720p, Dub+Mvo+Sub

salma3

43 | 8

3.97 ГБ

В этой теме нет новых непрочитанных сообщений. Flinn - Распечатка твоей роли[2011, Emopunk, MP3]

PriZraK

0 | 1

116.19 МБ

В этой теме нет новых непрочитанных сообщений. Роковые роли. Напророчить беду (Документальный, исследование, социология, 2016) WEB-DLRip от Files-х

marya111

92 | 12

502.32 МБ

В этой теме нет новых непрочитанных сообщений. Очень большая шишка / Very Big Shot / Film Kteer Kbeer (Мир-Жан Бу Чаая / Mir-Jean Bou Chaaya) [2015г., Ливан, криминал, HDRip] VO

Alfredovich

18 | 5

1.42 ГБ

В этой теме нет новых непрочитанных сообщений. Пятая заповедь / The Fifth Commandment [боевик, триллер, драма, комедия, криминал, 2008] HDRip, Mvo

salma3

12 | 3

1.46 ГБ


Начать новую тему Ответить на тему  [ 1 сообщение ] 




Для Мосгорсуда, Роскомнадзора и рекламодателей:: mosgorsud-torrent[собачка]yandex.ru