Торрент файл
скачать торрент магнет ссылка Добавлен: 28 апр 2011, 23:14
Размер: 2.18 ГБ
Сидеров: 75
Личеров: 9
Автор

СообщениеДобавлено: 28 апр 2011, 23:14 

Не в сети
Супермодератор
Аватара пользователя
Дата регистрации:
22 май 2010, 11:03
Возраст: 31
Спасибо: 7524 / 13
Сообщения: 49940
Адская команда / Чертовы футболисты / Teufelskicker / Devil's Kickers



Перевод: Любительский (одноголосый)
Субтитры: Русские
Формат: DVDRip-AVC , MKV, H.264, AC3
Страна: Германия
Режиссер: Гранц Хенман
Жанр: комедия, семейный, спорт
Продолжительность: 01:46:45
Год выпуска: 2010
В ролях: Диана Амфт, Бенно Фюрманн, Райнер Шёне, Армин Роде, Катрин Х. Флемминг, Генри Хорн, Цосима Хенман, Дарио Флик, Марвин Шлаттер, Каан Айдогду, Яссин Гурар и др.
Описание: Юный Мориц влюблен в футбол и играет в команде, которую тренирует его отец. Но после размолвки родителей мальчик вместе с мамой переезжает жить к дедушке в другой город. Столкнувшись в местном футбольном клубе со своим злейшим врагом и соперником по турниру Марком, Мориц решает собрать свою футбольную команду. Ведь новые школьные знакомые Морица: братья Мехмет и Энес, Нико, сестра Марка Катрина и загадочный Алекс, увлекающийся со своими приятелями паркуром, так же страстно любят футбол, как и Мориц.



Видео: 704x544@1001x544 (16:9), 25,000 fps, AVC MPEG-4 (x264), , ~2155 kbps, 0,225 bit/pix
Аудио#1: Русский 48 kHz, АC3, 6ch, (L,C,R,l,r) + LFE ch, ~384.00 kbps avg, 16 bit[Любительский (одноголосый, закадровый)]
Аудио#2: Немецкий 48 kHz, АC3, 6ch, (L,C,R,l,r) + LFE ch, ~384.00 kbps avg, 16 bit [Оригинальный]
Общее
Уникальный идентификатор: 202302326524889244343837633351269806579 (0x983202C6E45080EDBE864CFE42F0F1F3)
Полное имя: D:\Новая папка\Torrent\(2010) Чёртовы футболисты.mkv
Формат: Matroska
Размер файла: 2,18 Гбайт
Продолжительность: 1 ч. 46 м.
Общий поток: 2926 Кбит/сек
Название фильма: (2010) Чёртовы футболисты - релиз подготовил -Джон Коннор- для rutracker.org
Дата кодирования: UTC 2010-10-20 08:45:02
Программа кодирования: mkvmerge v4.2.0 ('No Talking') сборка от Jul 28 2010 18:38:23
Библиотека кодирования: libebml v1.0.0 + libmatroska v1.0.0

Видео
Идентификатор: 1
Формат: AVC
Формат/Информация: Advanced Video Codec
Профиль формата:
Параметр CABAC формата: Да
Параметр ReFrames формата: 9 кадры
Идентификатор кодека: V_MPEG4/ISO/AVC
Продолжительность: 1 ч. 46 м.
Битрейт: 2156 Кбит/сек
Ширина: 704 пикс.
Высота: 544 пикс.
Соотношение сторон: 16:9
Частота кадров: 25,000 кадр/сек
Цветовое пространство: YUV
Подвыборка цветности: 4:2:0
Битовая глубина: 8 бит
Тип развёртки: Прогрессивная
Бит/(Пиксели*Кадры): 0.225
Размер потока: 1,57 Гбайт (72%)
Заголовок: (2010) Чёртовы футболисты - релиз подготовил -Джон Коннор- для rutracker.org
Библиотека кодирования: x264 core 92 r1510 33d382a
Настройки программы: cabac=1 / ref=9 / deblock=1:-2:-2 / analyse=0x3:0x133 / me=umh / subme=9 / psy=1 / psy_rd=1.00:0.10 / mixed_ref=1 / me_range=32 / chroma_me=1 / trellis=2 / 8x8dct=1 / cqm=0 / deadzone=21,11 / fast_pskip=0 / chroma_qp_offset=-3 / threads=3 / sliced_threads=0 / nr=0 / decimate=1 / interlaced=0 / constrained_intra=0 / bframes=8 / b_pyramid=2 / b_adapt=2 / b_bias=0 / direct=3 / wpredb=1 / wpredp=2 / keyint=250 / keyint_min=25 / scenecut=40 / intra_refresh=0 / rc_lookahead=50 / rc=2pass / mbtree=1 / bitrate=2156 / ratetol=1.0 / qcomp=0.60 / qpmin=10 / qpmax=51 / qpstep=4 / cplxblur=20.0 / qblur=0.5 / ip_ratio=1.40 / aq=1:1.00
Язык: Russian

Аудио #1
Идентификатор: 2
Формат: AC-3
Формат/Информация: Audio Coding 3
Расширение режима: CM (complete main)
Идентификатор кодека: A_AC3
Продолжительность: 1 ч. 46 м.
Вид битрейта: Постоянный
Битрейт: 384 Кбит/сек
Канал(ы): 6 канала(ов)
Расположение каналов: Front: L C R, Side: L R, LFE
Частота: 48,0 КГц
Битовая глубина: 16 бит
Метод сжатия: С потерями
Размер потока: 293 Мбайт (13%)
Заголовок: Любительский (одноголосый, закадровый) Вячеслав Прошин
Язык: Russian

Аудио #2
Идентификатор: 3
Формат: AC-3
Формат/Информация: Audio Coding 3
Расширение режима: CM (complete main)
Идентификатор кодека: A_AC3
Продолжительность: 1 ч. 46 м.
Вид битрейта: Постоянный
Битрейт: 384 Кбит/сек
Канал(ы): 6 канала(ов)
Расположение каналов: Front: L C R, Side: L R, LFE
Частота: 48,0 КГц
Битовая глубина: 16 бит
Метод сжатия: С потерями
Размер потока: 293 Мбайт (13%)
Заголовок: Оригинальный
Язык: German

Текст
Идентификатор: 4
Формат: UTF-8
Идентификатор кодека: S_TEXT/UTF8
Идентификатор кодека/Информация: UTF-8 Plain Text
Заголовок: Русские
Язык: Russian












реклама партнёра


Вернуться к началу
 Профиль Отправить личное сообщение  
 
   Похожие торренты   Автор   Торрент   Размер 
В этой теме нет новых непрочитанных сообщений. Spider Kickers - Alcoholic [2011, Thrash,Death Metal, MP3]

PriZraK

0 | 1

91.47 МБ

В этой теме нет новых непрочитанных сообщений. Адская тварь / Aswang [ужасы, 1994] DVDRip, Avo

salma3

70 | 10

1.37 ГБ

В этой теме нет новых непрочитанных сообщений. Беседуя с Дьяволом / Speaking of the Devil [Комедия, 1991] DVDRip, Avo

salma3

1 | 2

1.51 ГБ

В этой теме нет новых непрочитанных сообщений. The Devil - The Devil [2012, Atmospheric Gothic, Doom Metal, Ambient, MP3]

PriZraK

0 | 1

178.47 МБ

В этой теме нет новых непрочитанных сообщений. Команда Тигра и гора 1000 драконов / Tiger Team - Der Berg der 1000 Drachen (Петер Герсина) [2010, приключения, семейный, DVDrip] Dub

Nickolas3435

21 | 1

1.38 ГБ

В этой теме нет новых непрочитанных сообщений. Команда мечты / The Dream Team [комедия, 1989] WEB-DL 1080p, Mvo+Avo+Sub

salma3

33 | 4

4.7 ГБ

В этой теме нет новых непрочитанных сообщений. Команда мечты / The Dream Team [комедия, 1989] BDRip 720p, Mvo+Avo+Sub

salma3

19 | 0

5.48 ГБ


Начать новую тему Ответить на тему  [ 1 сообщение ] 




Для Мосгорсуда, Роскомнадзора и рекламодателей:: mosgorsud-torrent[собачка]yandex.ru