Торрент файл
скачать торрент магнет ссылка Добавлен: 28 апр 2011, 23:14
Размер: 2.55 ГБ
Сидеров: 202
Личеров: 12
Автор

СообщениеДобавлено: 28 апр 2011, 23:14 

Не в сети
Супермодератор
Аватара пользователя
Дата регистрации:
22 май 2010, 11:03
Возраст: 32
Спасибо: 7690 / 13
Сообщения: 49871
Знакомство с Факерами 2 / Little Fockers


Перевод: Профессиональный (полное дублирование)[звук с TS], cубтитры: отсутствуют
Формат: HDRip-AVC, MKV, H.264, AC3
Страна: США
Режиссер: Пол Вайц
Жанр: Комедия
Продолжительность: 01:37:40
Год выпуска: 2010

В ролях: Роберт Де Ниро, Бен Стиллер, Оуэн Уилсон, Дастин Хоффман, Джессика Альба, Барбра Стрейзанд, Эрика Дженсен, Блайт Даннер, Тери Поло, Лора Дерн и др.

Описание: 10 лет, двое детей и бесчисленные испытания понадобились Грегу для того, чтобы тесть частично примирился с его существованием. Но после того как Грег, оказавшись на мели, находит себе халтуру в фармацевтической компании, подозрения Джека увеличиваются в геометрической прогрессии. Когда все семейство Грега и Пэм, включая ее бывшего возлюбленного Кевина, соберутся на день рождения близнецов, Грегу придется доказать скептично настроенному Джеку, что он настоящий хозяин в доме. Недоразумения, слежка, миссии под прикрытием — как все это поможет Грегу пройти последнее испытание и стать новым главой семьи? Или возникшее между родственниками доверие будет подорвано… к лучшему?



Видео: 1264x692(16:9),23.976 fps, V_MPEG4/ISO/AVC( ), ~2 774 Kbps,0.130 bit/pixel
Аудио#1: Русский:48,0 КГц,MP3,2 ch,128 Kbps [Профессиональный (полное дублирование)[звук с TS]]
Аудио#2: Украинский: 48,0 КГц,A_AC3,2 ch,384 Kbps [Профессиональный (полное дублирование)]
Аудио#3: Английский:48,0 КГц,A_AC3,6 ch,448 Kbps [Оригинал]

General
Unique ID: 215394971612690984365064104600792800241 (0xA20B90049543BC59B6EE32EC294D1BF1)
Complete name: C:\Documents and Settings\Admin.MICROSOF-42B712\Мои документы\Downloads\Новинки\Little Fockers.mkv
Format: Matroska
File size: 2.55 GiB
Duration: 1h 37mn
Overall bit rate: 3 732 Kbps
Encoded date: UTC 2011-04-02 10:18:11
Writing application: mkvmerge v4.6.0 ('Still Crazy After All These Years') сборка от Mar 10 2011 02:50:32
Writing library: libebml v1.2.0 + libmatroska v1.1.0

Video
ID: 1
Format: AVC
Format/Info: Advanced Video Codec
Format profile:
Format settings, CABAC: Yes
Format settings, ReFrames: 5 frames
Muxing mode: Header stripping
Codec ID: V_MPEG4/ISO/AVC
Duration: 1h 37mn
Bit rate: 2 774 Kbps
Width: 1 280 pixels
Height: 696 pixels
Display aspect ratio: 16:9
Frame rate: 23.976 fps
Color space: YUV
Chroma subsampling: 4:2:0
Bit depth: 8 bits
Scan type: Progressive
Bits/(Pixel*Frame): 0.130
Stream size: 1.84 GiB (72%)
Title: Vid_1
Writing library: x264 core 114 r1913 5fd3dce
Encoding settings: cabac=1 / ref=6 / deblock=1:-1:-1 / analyse=0x3:0x133 / me=umh / subme=8 / psy=1 / psy_rd=1.00:0.20 / mixed_ref=1 / me_range=24 / chroma_me=1 / trellis=2 / 8x8dct=1 / cqm=0 / deadzone=21,11 / fast_pskip=0 / chroma_qp_offset=-3 / threads=6 / sliced_threads=0 / nr=0 / decimate=1 / interlaced=0 / constrained_intra=0 / bframes=4 / b_pyramid=1 / b_adapt=2 / b_bias=0 / direct=1 / weightb=1 / open_gop=2 / weightp=2 / keyint=250 / keyint_min=23 / scenecut=40 / intra_refresh=0 / rc_lookahead=45 / rc=2pass / mbtree=1 / bitrate=2774 / ratetol=1.0 / qcomp=0.60 / qpmin=10 / qpmax=51 / qpstep=4 / cplxblur=20.0 / qblur=0.5 / vbv_maxrate=50000 / vbv_bufsize=50000 / nal_hrd=none / ip_ratio=1.40 / aq=1:1.50
Language: English
Color primaries: BT.709-5, BT.1361, IEC 61966-2-4, SMPTE RP177
Transfer characteristics: BT.709-5, BT.1361
Matrix coefficients: BT.709-5, BT.1361, IEC 61966-2-4 709, SMPTE RP177

Audio #1
ID: 2
Format: MPEG Audio
Format version: Version 1
Format profile: Layer 3
Mode: Joint stereo
Mode extension: MS Stereo
Muxing mode: Header stripping
Codec ID: A_MPEG/L3
Codec ID/Hint: MP3
Duration: 1h 37mn
Bit rate mode: Constant
Bit rate: 128 Kbps
Channel(s): 2 channels
Sampling rate: 48.0 KHz
Compression mode: Lossy
Stream size: 89.4 MiB (3%)
Title: TS
Language: Russian

Audio #2
ID: 3
Format: AC-3
Format/Info: Audio Coding 3
Mode extension: CM (complete main)
Muxing mode: Header stripping
Codec ID: A_AC3
Duration: 1h 37mn
Bit rate mode: Constant
Bit rate: 384 Kbps
Channel(s): 2 channels
Channel positions: Front: L R
Sampling rate: 48.0 KHz
Bit depth: 16 bits
Compression mode: Lossy
Stream size: 268 MiB (10%)
Title: Line
Language: Ukrainian

Audio #3
ID: 4
Format: AC-3
Format/Info: Audio Coding 3
Mode extension: CM (complete main)
Muxing mode: Header stripping
Codec ID: A_AC3
Duration: 1h 37mn
Bit rate mode: Constant
Bit rate: 448 Kbps
Channel(s): 6 channels
Channel positions: Front: L C R, Side: L R, LFE
Sampling rate: 48.0 KHz
Bit depth: 16 bits
Compression mode: Lossy
Stream size: 313 MiB (12%)
Language: English










реклама партнёра


Вернуться к началу
 Профиль Отправить личное сообщение  
 
   Похожие торренты   Автор   Торрент   Размер 
В этой теме нет новых непрочитанных сообщений. Знакомство с родителями / Meet the Parents [мелодрама, комедия, 2000] Blu-ray EUR 1080p, Dub+Avo+Sub

salma3

32 | 38

37.77 ГБ

В этой теме нет новых непрочитанных сообщений. Моцарт в джунглях / Mozart in the Jungle [1 сезон 1-10 серии из 10] (Пол Вайц) [комедия, музыка, 2014] WEBRip [AlexFilm]

Dracon

55 | 29

3.19 ГБ

В этой теме нет новых непрочитанных сообщений. Моцарт в джунглях / Mozart in the Jungle [1 сезон 1-10 серии из 10] (Пол Вайц) [комедия, музыка, 2014] WEBRip 720p, Dvo+Sub [AlexFilm]

Dracon

22 | 11

7.69 ГБ

В этой теме нет новых непрочитанных сообщений. Julia Taylor - Знакомство с Трахателями 5 / Meet The Fuckers 5 (2006) DVDRip

salma3

11 | 7

500.16 МБ

В этой теме нет новых непрочитанных сообщений. Meet The Fuckers 9 / Знакомство с трахальщиками 9 (Mick Blue, Zero Tolerance Entertainment) [2009 г., Anal, A2M, DP, Gonzo, Threesomes, Blowjob, Cumshot, Big Tits, DVDRip]

salma3

7 | 2

1.36 ГБ

В этой теме нет новых непрочитанных сообщений. Специалист. Знакомство с Windows 10 и Windows Server (М. Соколов) [2014, Обучающее видео, PCRec]

Nickolas3435

266 | 15

1.68 ГБ

В этой теме нет новых непрочитанных сообщений. Король комедии / The King of Comedy [драма, комедия, 1982] BDRip 1080p, Mvo+Dvo+Avo+Sub

salma3

43 | 43

11.44 ГБ


Начать новую тему Ответить на тему  [ 1 сообщение ] 




Для Мосгорсуда, Роскомнадзора и рекламодателей:: mosgorsud-torrent[собачка]yandex.ru