COVID-19 - Последняя информация о коронавирусе на сайте Минздрава




Торрент файл
скачать торрент магнет ссылка Добавлен: 26 мар 2019, 21:30
Размер: 743.02 МБ
Сидеров: 0
Личеров: 0
Статус: (salma3)
Автор

СообщениеДобавлено: 26 мар 2019, 21:30 

Не в сети
Супермодератор
Аватара пользователя
Дата регистрации:
15 фев 2012, 16:44
Возраст: 30
Спасибо: 8217 / 2148
Сообщения: 95904
Год выхода: 1995
Жанр: Приключения, комедия, семейный
Режиссер: Питер Хьюит

В ролях: Джонатан Тейлор Томас, Брэд Ренфро, Эрик Швейг, Чарльз Роккет, Эми Райт, Майкл МакШейн, Мэриэн Селдес, Рэйчел Ли Кук, Лэнни Флаэрти, Кортленд Мид

О фильме: От их проделок в ужас приходит вся округа. Кошки и собаки разбегаются, хозяйки запирают окна и двери, малыши плачут. Нет, это не монстры из страшной сказки вышли на улицу города. Просто нам предстоят новые встречи с Томом Сойером и Геком Финном.



Страна: США
Продолжительность: 01:31:49
Перевод: Профессиональный (многоголосый, закадровый) | Видеосервис

Файл
Кодек: XviD
Качество: WEB-DLRip
Видео: 688x304 (2.26:1), 23.976 fps, XviD build 73 ~993 kbps avg, 0.20 bit/pixel
Звук: 48 kHz, MPEG Layer 3, 2 ch, ~128.00 kbps avg



General
Complete name : Tom.and.Huck.1995.WEB-DLRip.Portablius.avi
Format : AVI
Format/Info : Audio Video Interleave
File size : 743 MiB
Duration : 1 h 31 min
Overall bit rate : 1 131 kb/s
Writing application : VirtualDubMod 1.5.10.3 | http://www.virtualdub-fr.org || (build 2550/release)
Writing library : VirtualDubMod build 2550/release

Video
ID : 0
Format : MPEG-4 Visual
Format profile : Advanced Simple@L5
Format settings : BVOP1 / Custom Matrix
Format settings, BVOP : 1
Format settings, QPel : No
Format settings, GMC : No warppoints
Format settings, Matrix : Custom
Codec ID : XVID
Codec ID/Hint : XviD
Duration : 1 h 31 min
Bit rate : 994 kb/s
Width : 688 pixels
Height : 304 pixels
Display aspect ratio : 2.25:1
Frame rate : 23.976 (24000/1001) FPS
Color space : YUV
Chroma subsampling : 4:2:0
Bit depth : 8 bits
Scan type : Progressive
Compression mode : Lossy
Bits/(Pixel*Frame) : 0.198
Stream size : 653 MiB (88%)
Writing library : XviD 73

Audio
ID : 1
Format : MPEG Audio
Format version : Version 1
Format profile : Layer 3
Codec ID : 55
Codec ID/Hint : MP3
Duration : 1 h 31 min
Bit rate mode : Constant
Bit rate : 128 kb/s
Channel(s) : 2 channels
Sampling rate : 48.0 kHz
Frame rate : 41.667 FPS (1152 SPF)
Compression mode : Lossy
Stream size : 84.1 MiB (11%)
Alignment : Aligned on interleaves
Interleave, duration : 42 ms (1.00 video frame)
Interleave, preload duratio : 504 ms
Writing library : LAME3.99r
Encoding settings : -m s -V 4 -q 2 -lowpass 17 -b 128



_________________
Проголосуй за трекер Открытый торрент трекер - RUS-MEDIA.ORG

Проголосуй Открытый торрент трекер - RUS-MEDIA.ORG


Скачать книги и аудио книги через торрент


Вернуться к началу
 Профиль Отправить личное сообщение  
 
   Похожие торренты   Автор   Торрент   Размер 
В этой теме нет новых непрочитанных сообщений. Приключения Тома Сойера / Tom and Huck [драма, мелодрама, комедия, 1995] WEB-DL 720p, Mvo

salma3

0 | 0

3.03 ГБ

В этой теме нет новых непрочитанных сообщений. Эй, Арнольд! Приключения в джунглях / Hey Arnold! The Jungle Movie [комедия, приключения, семейный, 2017] WEB-DLRip, Mvo

salma3

64 | 4

1.06 ГБ

В этой теме нет новых непрочитанных сообщений. Вдали от дома: Приключения жёлтого пса / Far from Home: The Adventures of Yellow Dog [Приключения, семейный, 1995] WEB-DL 1080p, Mvo

salma3

0 | 0

7.98 ГБ

В этой теме нет новых непрочитанных сообщений. Бинго / Bingo [комедия, приключения, семейный, 1991] WEB-DLRip, Mvo

salma3

0 | 0

1.45 ГБ

В этой теме нет новых непрочитанных сообщений. Парень из Голливуда, или Необыкновенные приключения Вени Везунчика [Комедия, приключения, семейный, 2018] WEB-DLRip [iTunes]

salma3

189 | 64

1.37 ГБ

В этой теме нет новых непрочитанных сообщений. Крик совы / Hoot [комедия, приключения, семейный, 2006] WEB-DLRip-AVC, Mvo

salma3

7 | 9

1.79 ГБ

В этой теме нет новых непрочитанных сообщений. Команда Моники / Turma da Mоnica: Laсos [комедия, семейный, приключения, 2019] WEB-DLRip, Mvo

K15

5 | 5

1.37 ГБ


Начать новую тему Ответить на тему  [ 1 сообщение ] 




Для Мосгорсуда, Роскомнадзора и рекламодателей:: rstracker[собака]yandex.ru
cron