COVID-19 - Последняя информация о коронавирусе на сайте Минздрава




Торрент файл
скачать торрент магнет ссылка Добавлен: 26 мар 2019, 12:57
Размер: 1.46 ГБ
Сидеров: 0
Личеров: 0
Статус: (salma3)
Автор

СообщениеДобавлено: 26 мар 2019, 12:57 

Не в сети
Супермодератор
Аватара пользователя
Дата регистрации:
15 фев 2012, 16:44
Возраст: 32
Спасибо: 8298 / 2148
Сообщения: 97035
Год выхода: 2003
Жанр: Ужасы, Триллер, Комедия
Режиссер: Жан-Баптист Андреа, Фабрис Канепа

В ролях: Рэй Уайз, Лин Шэй, Мик Кэйн, Александра Холден, Билли Эшер, Эмбер Смит, Шарон Мэдден, Стив Валентайн, Джимми Ф. Скэггз.

О фильме:
Все последние 20 лет Фрэнк отвозил семью на Рождество к своей теще и всегда ездил одной и той же дорогой. На это раз он решил сократить путь, проехав через лес. И совершенно напрасно…

По лесу бродит таинственная женщина в белом, сеющая смерть. Ужасный черный автомобиль с невидимым шофером увозит жертвы в ночную тьму. На каждом дорожном знаке указан пункт назначения, которого невозможно достичь. Те же, кому посчастливится выжить, уже никогда и ничего не смогут рассказать о том, что произошло с ними в эту Рождественскую ночь…



Страна: США, Франция
Продолжительность: 01:23:19
Перевод: Профессиональный двухголосный, любительский одноголосный

Файл
Кодек: h.264
Качество: WEB-DLRip-AVC
Видео: MPEG-4, 1080x584, 23.976 fps ~1715 kbps
Звук:
1) AC3 2 ch, 48 kHz ~192 kbps - DVO [Екатеринбург Арт]
2) AC3 2 ch, 48 kHz ~192 kbps - VO
3) AC3 2 ch, 48 kHz ~192 kbps - VO [allecs201]
4) E-AC3 2 ch, 48 kHz ~224 kbps - Original
Субтитры: Английские

General
Unique ID : 132303353121037867897990101671731028497 (0x6388B2EE8267A1202DAA4D122D506211)
Complete name : K:VIDEOТупик (2003).mkv
Format : Matroska
Format version : Version 4
File size : 1.46 GiB
Duration : 1 h 23 min
Overall bit rate : 2 516 kb/s
Movie name : Dead End (2003) WebDLRip-AVC от DrVampir
Encoded date : UTC 2019-03-15 09:11:09
Writing application : mkvmerge v32.0.0 ('Astral Progressions') 64-bit
Writing library : libebml v1.3.7 + libmatroska v1.5.0 / Lavf58.20.100
Cover : Yes
Attachments : Cover.jpg

Video
ID : 1
Format : AVC
Format/Info : Advanced Video Codec
Format profile : High@L4.1
Format settings : CABAC / 12 Ref Frames
Format settings, CABAC : Yes
Format settings, ReFrames : 12 frames
Codec ID : V_MPEG4/ISO/AVC
Duration : 1 h 23 min
Bit rate : 1 715 kb/s
Width : 1 080 pixels
Height : 584 pixels
Display aspect ratio : 1.85:1
Frame rate mode : Constant
Frame rate : 23.976 (24000/1001) FPS
Color space : YUV
Chroma subsampling : 4:2:0
Bit depth : 8 bits
Scan type : Progressive
Bits/(Pixel*Frame) : 0.113
Stream size : 1 021 MiB (68%)
Title : MPEG-4, 1080x584, 23.976 fps ~1715 kbps
Writing library : x264 core 157 r2935 545de2f
Encoding settings : cabac=1 / ref=12 / deblock=1:-3:-3 / analyse=0x3:0x133 / me=umh / subme=11 / psy=1 / psy_rd=1.00:0.15 / mixed_ref=1 / me_range=56 / chroma_me=1 / trellis=2 / 8x8dct=1 / cqm=0 / deadzone=21,11 / fast_pskip=0 / chroma_qp_offset=-3 / threads=6 / lookahead_threads=1 / sliced_threads=0 / nr=0 / decimate=0 / interlaced=0 / bluray_compat=0 / constrained_intra=0 / bframes=16 / b_pyramid=2 / b_adapt=2 / b_bias=0 / direct=3 / weightb=1 / open_gop=0 / weightp=2 / keyint=240 / keyint_min=24 / scenecut=40 / intra_refresh=0 / rc_lookahead=80 / rc=2pass / mbtree=0 / bitrate=1715 / ratetol=1.0 / qcomp=0.60 / qpmin=0 / qpmax=69 / qpstep=4 / cplxblur=20.0 / qblur=0.5 / vbv_maxrate=62500 / vbv_bufsize=78125 / nal_hrd=none / filler=0 / ip_ratio=1.40 / pb_ratio=1.30 / aq=1:1.00
Language : English
Default : Yes
Forced : No
Color range : Limited
Color primaries : BT.709
Transfer characteristics : BT.709
Matrix coefficients : BT.709

Audio #1
ID : 2
Format : AC-3
Format/Info : Audio Coding 3
Commercial name : Dolby Digital
Codec ID : A_AC3
Duration : 1 h 23 min
Bit rate mode : Constant
Bit rate : 192 kb/s
Channel(s) : 2 channels
Channel layout : L R
Sampling rate : 48.0 kHz
Frame rate : 31.250 FPS (1536 SPF)
Bit depth : 16 bits
Compression mode : Lossy
Delay relative to video : -5 ms
Stream size : 114 MiB (8%)
Title : AC3 2 ch, 48 kHz ~192 kbps - DVO [Екатеринбург Арт]
Language : Russian
Service kind : Complete Main
Default : Yes
Forced : No

Audio #2
ID : 3
Format : AC-3
Format/Info : Audio Coding 3
Commercial name : Dolby Digital
Codec ID : A_AC3
Duration : 1 h 22 min
Bit rate mode : Constant
Bit rate : 192 kb/s
Channel(s) : 2 channels
Channel layout : L R
Sampling rate : 48.0 kHz
Frame rate : 31.250 FPS (1536 SPF)
Bit depth : 16 bits
Compression mode : Lossy
Delay relative to video : -5 ms
Stream size : 114 MiB (8%)
Title : AC3 2 ch, 48 kHz ~192 kbps - VO
Language : Russian
Service kind : Complete Main
Default : No
Forced : No

Audio #3
ID : 4
Format : AC-3
Format/Info : Audio Coding 3
Commercial name : Dolby Digital
Codec ID : A_AC3
Duration : 1 h 23 min
Bit rate mode : Constant
Bit rate : 192 kb/s
Channel(s) : 2 channels
Channel layout : L R
Sampling rate : 48.0 kHz
Frame rate : 31.250 FPS (1536 SPF)
Bit depth : 16 bits
Compression mode : Lossy
Delay relative to video : -5 ms
Stream size : 114 MiB (8%)
Title : AC3 2 ch, 48 kHz ~192 kbps - VO [allecs201]
Language : Russian
Service kind : Complete Main
Default : No
Forced : No

Audio #4
ID : 5
Format : E-AC-3
Format/Info : Enhanced AC-3
Commercial name : Dolby Digital Plus
Codec ID : A_EAC3
Duration : 1 h 23 min
Bit rate mode : Constant
Bit rate : 224 kb/s
Channel(s) : 2 channels
Channel layout : L R
Sampling rate : 48.0 kHz
Frame rate : 31.250 FPS (1536 SPF)
Compression mode : Lossy
Stream size : 133 MiB (9%)
Title : E-AC3 2 ch, 48 kHz ~224 kbps - Original
Language : English
Service kind : Complete Main
Default : No
Forced : No

Text #1
ID : 6
Format : ASS
Codec ID : S_TEXT/ASS
Codec ID/Info : Advanced Sub Station Alpha
Duration : 1 h 20 min
Bit rate : 120 b/s
Count of elements : 1216
Compression mode : Lossless
Stream size : 70.7 KiB (0%)
Language : Russian
Default : No
Forced : No

Text #2
ID : 7
Format : ASS
Codec ID : S_TEXT/ASS
Codec ID/Info : Advanced Sub Station Alpha
Duration : 1 h 19 min
Bit rate : 79 b/s
Count of elements : 799
Compression mode : Lossless
Stream size : 46.1 KiB (0%)
Language : English
Default : No
Forced : No

Text #3
ID : 8
Format : ASS
Codec ID : S_TEXT/ASS
Codec ID/Info : Advanced Sub Station Alpha
Duration : 1 h 22 min
Bit rate : 87 b/s
Count of elements : 982
Compression mode : Lossless
Stream size : 53.3 KiB (0%)
Language : English
Default : No
Forced : No

Menu
00:00:00.000 : :Chapter 1
00:03:59.865 : :Chapter 2
00:08:19.457 : :Chapter 3
00:10:45.228 : :Chapter 4
00:16:34.869 : :Chapter 5
00:22:08.369 : :Chapter 6
00:26:55.572 : :Chapter 7
00:32:37.539 : :Chapter 8
00:37:43.845 : :Chapter 9
00:42:49.025 : :Chapter 10
00:46:40.923 : :Chapter 11
00:51:04.478 : :Chapter 12
00:54:31.977 : :Chapter 13
01:00:08.063 : :Chapter 14
01:06:53.676 : :Chapter 15
01:12:49.699 : :Chapter 16
01:16:50.731 : :Chapter 17
01:20:23.068 : :Chapter 18


_________________
Проголосуй за трекер Открытый торрент трекер - RUS-MEDIA.ORG

Проголосуй Открытый торрент трекер - RUS-MEDIA.ORG


Скачать книги и аудио книги через торрент


Вернуться к началу
 Профиль Отправить личное сообщение  
 
   Похожие торренты   Автор   Торрент   Размер 
В этой теме нет новых непрочитанных сообщений. Тупик / Dead End [Ужасы, Триллер, Комедия, 2003] WEB-DLRip 720p, Dvo

salma3

0 | 0

2.9 ГБ

В этой теме нет новых непрочитанных сообщений. Ходячие мертвецы / The Walking Dead [11x01-05 из 24] [ужасы, триллер, драма, 2021] WEB-DLRip-AVC, Mvo [LostFilm]

salma3

0 | 0

3.21 ГБ

В этой теме нет новых непрочитанных сообщений. Дракула: Мертвый и довольный / Dracula: Dead and Loving It [комедия, фэнтези, ужасы, 1995] WEB-DLRip-AVC, Mvo

salma3

В этой теме нет новых непрочитанных сообщений. Зомби по имени Шон / Shaun of the Dead [ужасы, комедия, 2004] WEB-DLRip-AVC, Mvo [Open Matte]

salma3

0 | 0

2.49 ГБ

В этой теме нет новых непрочитанных сообщений. Дракула: Мертвый и довольный / Dracula: Dead and Loving It [комедия, фэнтези, ужасы, 1995] WEB-DLRip-AVC, Mvo

salma3

0 | 0

744.98 МБ

В этой теме нет новых непрочитанных сообщений. Дракула: Мертвый и довольный / Dracula: Dead and Loving It [комедия, фэнтези, ужасы, 1995] WEB-DLRip-AVC, Mvo

salma3

0 | 0

2.18 ГБ

В этой теме нет новых непрочитанных сообщений. Попутчик 2 / The Hitcher II: I've Been Waiting [ужасы, триллер, 2003] WEB-DLRip-AVC, Mvo

salma3

0 | 0

743.86 МБ


Начать новую тему Ответить на тему  [ 1 сообщение ] 




Для Мосгорсуда, Роскомнадзора и рекламодателей:: rstracker[собака]yandex.ru
cron