Торрент файл
скачать торрент магнет ссылка Добавлен: 28 апр 2011, 22:57
Размер: 4.59 ГБ
Сидеров: 48
Личеров: 12
Автор

СообщениеДобавлено: 28 апр 2011, 22:57 

Не в сети
Супермодератор
Аватара пользователя
Дата регистрации:
22 май 2010, 11:03
Возраст: 31
Спасибо: 7509 / 13
Сообщения: 49940
Дом большой мамочки (дилогия) / Big Momma's House (dilogy)




Дом большой мамочки/ Big Momma's House



Перевод: Профессиональный (полное дублирование), cубтитры: отсутствуют
Формат: HDRip-AVC, MKV, H.264, AC3
Страна: США
Режиссер: Раджа Госнелл
Жанр: боевик, триллер, комедия
Продолжительность: 01:38:58
Год выпуска: 2000

В ролях: Мартин Лоуренс, Ниа Лонг, Пол Джаматти, Яша Вашингтон, Терренс Ховард, Энтони Андерсон, Элла Митчел, Карл Райт, Филлис Эпплгейт, Старлетта Дюпуа

Описание: Агент ФБР Малькольм Тернер, мастер перевоплощений. Он умен, обаятелен и не существует такого задания, с которым он бы не справился. Остановить череду жестоких преступлений? Нет проблем. Малкольм входит в роль пожилого азиата для расследования преступлений. Последнее назначение Малькома приводит его в маленький южный городок, где он должен поймать матерого грабителя банков, недавно сбежавшего из тюрьмы. Малькольм устанавливает слежку за домом южной, властной женщины, известной как «Большая мамочка». По оперативным данным ее должна навестить бывшая подружка преступника Шерри со своим сыном. Очень постой план, но есть одна Большая проблема: Большая мамочка неожиданно покидает город…



Видео: 1024 x 544 (1.882), 23.976 fps, AVC MPEG-4 , х264, ~2 650 kbps, 0.198 bit/pixel
Аудио: #1: русский48 kHz, AC3 Dolby Digital, 3/2 (L,C,R,l,r) + LFE ch, ~448 kbps[Профессиональный (полное дублирование)]
Аудио: #2: английский48 kHz, AC3 Dolby Digital, 3/2 (L,C,R,l,r) + LFE ch, ~448 kbps[оригинал]

General
Unique ID: 252278922913812700360830148139062547980 (0xBDCB2737F7B1A38EAF13063E41E6560C)
Complete name: E:\РЕЛИЗЫ\Все релизы 11\dom_bolshoi_mamochki_[tfile.ru]\dom_bolshoi_mamochki_[tfile.ru].mkv
Format: Matroska
File size: 2.45 GiB
Duration: 1h 38mn
Overall bit rate: 3 546 Kbps
Encoded date: UTC 2011-01-29 06:11:59
Writing application: mkvmerge v4.0.0 ('The Stars were mine') сборка от Jun6 2010 16:18:42
Writing library: libebml v1.0.0 + libmatroska v1.0.0

Video
ID: 1
Format: AVC
Format/Info: Advanced Video Codec
Format profile:
Format settings, CABAC: Yes
Format settings, ReFrames: 8 frames
Codec ID: V_MPEG4/ISO/AVC
Duration: 1h 38mn
Bit rate: 2 650 Kbps
Width: 1 024 pixels
Height: 544 pixels
Display aspect ratio: 1.882
Frame rate: 23.976 fps
Color space: YUV
Chroma subsampling: 4:2:0
Bit depth: 8 bits
Scan type: Progressive
Bits/(Pixel*Frame): 0.198
Stream size: 1.78 GiB (73%)
Title: By DenisNN
Writing library: x264 core 112 r1834 a51816a
Encoding settings: cabac=1 / ref=8 / deblock=1:-1:-1 / analyse=0x3:0x133 / me=umh / subme=7 / psy=1 / psy_rd=1.00:0.00 / mixed_ref=1 / me_range=48 / chroma_me=1 / trellis=2 / 8x8dct=1 / cqm=0 / deadzone=21,11 / fast_pskip=0 / chroma_qp_offset=-2 / threads=3 / sliced_threads=0 / nr=0 / decimate=0 / interlaced=0 / constrained_intra=0 / bframes=3 / b_pyramid=2 / b_adapt=2 / b_bias=0 / direct=3 / weightb=1 / open_gop=0 / weightp=2 / keyint=250 / keyint_min=23 / scenecut=40 / intra_refresh=0 / rc_lookahead=120 / rc=2pass / mbtree=1 / bitrate=2650 / ratetol=1.0 / qcomp=0.60 / qpmin=0 / qpmax=51 / qpstep=4 / cplxblur=20.0 / qblur=0.5 / ip_ratio=1.40 / aq=1:1.00
Language: English

Audio #1
ID: 2
Format: AC-3
Format/Info: Audio Coding 3
Mode extension: CM (complete main)
Codec ID: A_AC3
Duration: 1h 38mn
Bit rate mode: Constant
Bit rate: 448 Kbps
Channel(s): 6 channels
Channel positions: Front: L C R, Side: L R, LFE
Sampling rate: 48.0 KHz
Bit depth: 16 bits
Compression mode: Lossy
Stream size: 317 MiB (13%)
Title: Дубляж
Language: Russian

Audio #2
ID: 3
Format: AC-3
Format/Info: Audio Coding 3
Mode extension: CM (complete main)
Codec ID: A_AC3
Duration: 1h 38mn
Bit rate mode: Constant
Bit rate: 448 Kbps
Channel(s): 6 channels
Channel positions: Front: L C R, Side: L R, LFE
Sampling rate: 48.0 KHz
Bit depth: 16 bits
Compression mode: Lossy
Stream size: 317 MiB (13%)
Title: Английский
Language: English













Дом большой мамочки 2 / Big Momma's House 2



Перевод: Профессиональный (полное дублирование), cубтитры: отсутствуют
Формат: HDRip-AVC, MKV, H.264, AC3
Страна: США
Режиссер: Джон Уайтселл
Жанр: боевик, триллер, комедия
Продолжительность: 01:38:52
Год выпуска: 2006

В ролях: Мартин Лоуренс, Ниа Лонг, Эмили Проктер, Захари Левай, Марк Моусес, Кэт Деннингс, Хлоэ Морец, Марисоль Николс, Джош Флиттер, Дэн Лориа...

Описание: На сей раз, Малкольм должен разоблачить подозреваемого - изобретателя смертельного компьютерного "червя", который может открыть внешний доступ к файлам с важной правительственной информацией. К сожалению, единственный способ добраться до создателя вируса, Тома Фуллера (Марк Моузес), - это внедриться в дом программиста в качестве новой "няньки" для его детишек: малыша Эндрю и двух его старших сестер - Кэрри и Молли. Это означает, что Малкольм должен еще раз положиться на свое безошибочное Альтер-эго, чтобы обезвредить плохих парней и доказать, что у женщины всегда хлопот по горло!



Видео: 1024 x 544 (1.848), 23.976 fps, AVC MPEG-4 , х264, ~2 650 kbps, 0.195 bit/pixel
Аудио: 48 kHz, AC3 Dolby Digital, 3/2 (L,C,R,l,r) + LFE ch, ~448 kbps

General
Unique ID: 191830514632834059995025494497471866980 (0x90513696C19E376DB7C6782DEC15A864)
Complete name: E:\РЕЛИЗЫ\Все релизы 11\dom_bolshoi_mamochki_[tfile.ru]\dom_bolshoi_mamochki_dva_[tfile.ru].mkv
Format: Matroska
File size: 2.14 GiB
Duration: 1h 38mn
Overall bit rate: 3 099 Kbps
Encoded date: UTC 2011-01-30 17:25:48
Writing application: mkvmerge v4.0.0 ('The Stars were mine') сборка от Jun6 2010 16:18:42
Writing library: libebml v1.0.0 + libmatroska v1.0.0

Video
ID: 1
Format: AVC
Format/Info: Advanced Video Codec
Format profile:
Format settings, CABAC: Yes
Format settings, ReFrames: 8 frames
Codec ID: V_MPEG4/ISO/AVC
Duration: 1h 38mn
Bit rate: 2 650 Kbps
Width: 1 024 pixels
Height: 554 pixels
Display aspect ratio: 16:9
Frame rate: 23.976 fps
Color space: YUV
Chroma subsampling: 4:2:0
Bit depth: 8 bits
Scan type: Progressive
Bits/(Pixel*Frame): 0.195
Stream size: 1.79 GiB (84%)
Title: Rip by DenisNN
Writing library: x264 core 112 r1834 a51816a
Encoding settings: cabac=1 / ref=8 / deblock=1:-1:-1 / analyse=0x3:0x133 / me=umh / subme=7 / psy=1 / psy_rd=1.00:0.00 / mixed_ref=1 / me_range=16 / chroma_me=1 / trellis=2 / 8x8dct=1 / cqm=0 / deadzone=21,11 / fast_pskip=0 / chroma_qp_offset=-2 / threads=3 / sliced_threads=0 / nr=0 / decimate=0 / interlaced=0 / constrained_intra=0 / bframes=3 / b_pyramid=2 / b_adapt=2 / b_bias=0 / direct=3 / weightb=1 / open_gop=0 / weightp=2 / keyint=250 / keyint_min=23 / scenecut=40 / intra_refresh=0 / rc_lookahead=120 / rc=2pass / mbtree=1 / bitrate=2650 / ratetol=1.0 / qcomp=0.60 / qpmin=0 / qpmax=51 / qpstep=4 / cplxblur=20.0 / qblur=0.5 / ip_ratio=1.40 / aq=1:1.00
Language: English

Audio
ID: 2
Format: AC-3
Format/Info: Audio Coding 3
Mode extension: CM (complete main)
Codec ID: A_AC3
Duration: 1h 38mn
Bit rate mode: Constant
Bit rate: 448 Kbps
Channel(s): 6 channels
Channel positions: Front: L C R, Side: L R, LFE
Sampling rate: 48.0 KHz
Bit depth: 16 bits
Compression mode: Lossy
Stream size: 317 MiB (14%)
Title: Дубляж
Language: Russian














реклама партнёра


Вернуться к началу
 Профиль Отправить личное сообщение  
 
   Похожие торренты   Автор   Торрент   Размер 
В этой теме нет новых непрочитанных сообщений. Momma Loves A Hard Dick / Мамочки Любят Жесткий Член (Hustler) (Diana Doll, Veronica Avluv, Phoenix Marie, Ariella Ferrara, Ashley Fires...) [2014 г., All Sex, Pantyhose, Compilation, Mature, MILF, Prebooks, DVDRip 386p]

friizze

41 | 19

1.55 ГБ

В этой теме нет новых непрочитанных сообщений. Сбрось маму с поезда / Throw Momma from the Train [комедия, криминал, 1987] BDRip, Dvo [НТВ+]

salma3

23 | 8

1.45 ГБ

В этой теме нет новых непрочитанных сообщений. Рейд: Дилогия / The Raid: Redemption / Serbuan maut: Dilogy [боевик, триллер, криминал, 2011-2014] HDRip, Dub

salma3

141 | 17

2.91 ГБ

В этой теме нет новых непрочитанных сообщений. SweetKiss Momma - A Reckoning Is Coming [2014, Southern Rock, MP3]

PriZraK

0 | 1

80.68 МБ

В этой теме нет новых непрочитанных сообщений. Мамочки [1-20 серии из 20] (Валерия Ивановская, Александр Богданенко) [Комедия, 2015] SATRip

Dracon

320 | 124

6.63 ГБ

В этой теме нет новых непрочитанных сообщений. Мачо и ботан: Дилогия / Jump Street: Dilogy [комедия, боевик, криминал, 2012-2014] BDRip, Dub [Лицензия]

salma3

84 | 14

4.36 ГБ

В этой теме нет новых непрочитанных сообщений. Где моя тачка, чувак? / Dude, Where's My Car? [Комедия, 2000] HDRip, Avo

salma3

1 | 1

1.46 ГБ


Начать новую тему Ответить на тему  [ 1 сообщение ] 




Для Мосгорсуда, Роскомнадзора и рекламодателей:: mosgorsud-torrent[собачка]yandex.ru