Торрент файл
скачать торрент магнет ссылка Добавлен: 28 апр 2011, 22:53
Размер: 2.2 ГБ
Сидеров: 40
Личеров: 7
Автор

СообщениеДобавлено: 28 апр 2011, 22:53 

Не в сети
Супермодератор
Аватара пользователя
Дата регистрации:
22 май 2010, 11:03
Возраст: 31
Спасибо: 7508 / 13
Сообщения: 49940
Ханна Монтана: Кино / Hannah Montana: The Movie


Перевод: Профессиональный (полное дублирование), cубтитры: отсутствуют
Формат: HDRip, MKV, H.264, AC3
Страна: США
Режиссер: Питер Челсом
Жанр: Комедия, драма, мелодрама, семейный, музыкальный
Продолжительность: 01:42:20
Год выпуска: 2009

В ролях: Майли Сайрус, Билли Рэй Сайрус, Эмили Осмент, Джейсон Ерлс, Митчел Муссо, Мойзес Ариас, Лукас Тилл, Ванесса Уильямс, Марго Мартиндейл, Питер Ганн

Описание: Когда популярность Ханны Монтаны берет верх над жизнью Майли Стюарт, ее отец принимает решение совершить поездку в ее родной город Тенесси, чтобы понять какая перспектива имеет большее значение в жизни Майли.




Видео: 1280x688 (1.86:1), 23.976 fps, H.264 MPEG-4, ~2903 kbps avg, 0.14 bit/pixel
Аудио: 48 kHz, Audio Coding 3, 2 ch, ~192 kbps avg

General
Unique ID: 175796544075946694967043880217686116480 (0x84412ECE4FC6EA6793D4549F0E550880)
Complete name: C:\Users\Радик\Downloads\Hannah_montana_the_movie_[tfile.ru].mkv
Format: Matroska
File size: 2.20 GiB
Duration: 1h 42mn
Overall bit rate: 3 082 Kbps
Movie name: Rip by PunisheR [nolimits-team.ru]
Encoded date: UTC 2011-02-24 16:38:21
Writing application: mkvmerge v3.2.0 ('Beginnings') built on Feb 12 2010 16:46:17
Writing library: libebml v0.7.9 + libmatroska v0.8.1

Video
ID: 2
Format: AVC
Format/Info: Advanced Video Codec
Format profile:
Format settings, CABAC: Yes
Format settings, ReFrames: 3 frames
Codec ID: V_MPEG4/ISO/AVC
Duration: 1h 42mn
Bit rate mode: Variable
Bit rate: 2 903 Kbps
Maximum bit rate: 17.5 Mbps
Width: 1 280 pixels
Height: 688 pixels
Display aspect ratio: 1.860
Frame rate: 23.976 fps
Color space: YUV
Chroma subsampling: 4:2:0
Bit depth: 8 bits
Scan type: Progressive
Bits/(Pixel*Frame): 0.137
Stream size: 2.02 GiB (92%)
Title: Hannah.Monatana.[nolimits-team]
Writing library: x264 core 112 r1867 22bfd31
Encoding settings: cabac=1 / ref=1 / deblock=1:0:0 / analyse=0x3:0x3 / me=dia / subme=1 / psy=1 / psy_rd=0.00:0.00 / mixed_ref=0 / me_range=16 / chroma_me=1 / trellis=0 / 8x8dct=1 / cqm=0 / deadzone=21,11 / fast_pskip=1 / chroma_qp_offset=0 / threads=6 / sliced_threads=0 / slices=4 / nr=0 / decimate=1 / interlaced=0 / constrained_intra=0 / bframes=3 / b_pyramid=1 / b_adapt=1 / b_bias=0 / direct=1 / weightb=1 / open_gop=0 / weightp=1 / keyint=24 / keyint_min=1 / scenecut=40 / intra_refresh=0 / rc_lookahead=0 / rc=abr / mbtree=0 / bitrate=2903 / ratetol=1.0 / qcomp=0.60 / qpmin=0 / qpmax=51 / qpstep=4 / vbv_maxrate=17500 / vbv_bufsize=14500 / nal_hrd=vbr / ip_ratio=1.10 / pb_ratio=1.10 / aq=1:1.00
Language: English

Audio
ID: 1
Format: AC-3
Format/Info: Audio Coding 3
Mode extension: CM (complete main)
Codec ID: A_AC3
Duration: 1h 42mn
Bit rate mode: Constant
Bit rate: 192 Kbps
Channel(s): 2 channels
Channel positions: Front: L R
Sampling rate: 48.0 KHz
Bit depth: 16 bits
Compression mode: Lossy
Stream size: 141 MiB (6%)
Language: Russian







реклама партнёра


Вернуться к началу
 Профиль Отправить личное сообщение  
 
   Похожие торренты   Автор   Торрент   Размер 
В этой теме нет новых непрочитанных сообщений. Монтана/ Montana [боевик, триллер, драма, криминал, 2014] HDRip, avo

Dracon

1601 | 68

1.51 ГБ

В этой теме нет новых непрочитанных сообщений. Путешествие Гектора в поисках счастья / Hector and the Search for Happiness (Питер Челсом) [Драма, комедия, приключения, 2014] HDRip, Dub [iTunes]

Dracon

108 | 4

1.46 ГБ

В этой теме нет новых непрочитанных сообщений. Путешествие Гектора в поисках счастья / Hector and the Search for Happiness (Питер Челсом) [Драма, комедия, приключения, 2014] HDRip, Dub [iTunes]

Dracon

5 | 5

2.06 ГБ

В этой теме нет новых непрочитанных сообщений. Монтана / Montana [боевик, триллер, драма, криминал, 2014] BDRip 720p, avo

Dracon

277 | 21

4.5 ГБ

В этой теме нет новых непрочитанных сообщений. Монтана / Montana [боевик, триллер, драма, криминал, 2014] BDRip 1080p, avo

Dracon

185 | 12

7.8 ГБ

В этой теме нет новых непрочитанных сообщений. Ханна и ее сестры / Hannah and Her Sisters [комедия, 1986] BDRip 720p, Avo+Mvo+Sub

salma3

22 | 2

4.36 ГБ

В этой теме нет новых непрочитанных сообщений. Путешествие Гектора в поисках счастья / Hector and the Search for Happiness (Питер Челсом) [Драма, комедия, приключения, 2014] BDRip 720p, Dub [iTunes]

Dracon

22 | 6

4.68 ГБ


Начать новую тему Ответить на тему  [ 1 сообщение ] 




Для Мосгорсуда, Роскомнадзора и рекламодателей:: mosgorsud-torrent[собачка]yandex.ru