COVID-19 - Последняя информация о коронавирусе на сайте Минздрава




Торрент файл
скачать торрент магнет ссылка Добавлен: 17 мар 2019, 14:26
Размер: 2.8 ГБ
Сидеров: 0
Личеров: 0
Статус: (salma3)
Автор

СообщениеДобавлено: 17 мар 2019, 14:26 

Не в сети
Супермодератор
Аватара пользователя
Дата регистрации:
15 фев 2012, 16:44
Возраст: 31
Спасибо: 8280 / 2148
Сообщения: 96711
Год выхода: 2006
Жанр: Фантастика, Боевик, Триллер
Режиссер: Лен Уайзман

В ролях: Кейт Бекинсейл, Скотт Спидман, Тони Кёрран, Дерек Джекоби, Билл Найи, Стивен Макинтош, Шэйн Бролли, Брайан Стил, Зита Гёрёг, Скотт МакЭлрой

О фильме:
В зловещем ночном мире, скрытом от взора простых смертных, не утихает беспощадная борьба между двумя кланами властителей мрака – вампирами и оборотнями. Настала пора узнать об истоках вековой вражды, ставшей для вампира-воительницы Селин и Майкла, полуоборотня–получеловека, проклятьем и смыслом существования. Сражаясь с могущественными врагами из обоих кланов, древними магистрами смерти, они познают кровавую интригу и запретную любовь, чтобы в сумраке ночи раскрыть тайну своего происхождения и своего наследия. Их ждет великая битва, которая покончит с вечным противостоянием – последняя схватка ради окончания всех войн, в которой бессмертные должны понести кару и расплатиться за свои злодеяния…



Страна: США, Канада, Венгрия
Продолжительность: 01:46:22
Перевод: Дублированный, Проф. многоголосый, Авторский одноголосый

Файл
Кодек: AVC/H.264
Качество: HDRip-AVC
Видео: 1120x630, ~2423 kbps, 23.976 fps
Звук:
Аудио 1: Русский, АС3, 6 ch, 448 kbps | Дубляж (BD CEE)
Аудио 2: Русский, АС3, 6 ch, 448 kbps | Многоголосый (Киномания)
Аудио 3: Русский, АС3, 6 ch, 448 kbps | Авторский (Гаврилов)
Субтитры: Русские (2x Full), английские (Full)
Навигация по главам: Есть

General
Unique ID : 249778136739077210784693288820963670093 (0xBBE984F0D6A7CB31AB9FBBB4D2C9F84D)
Complete name : C:UsersLyova55DesktopДругой мир 2.Эволюция.2006.HDRip-AVC.OM.kovonet.mkv
Format : Matroska
Format version : Version 4
File size : 2.80 GiB
Duration : 1 h 46 min
Overall bit rate : 3 769 kb/s
Encoded date : UTC 2019-03-15 21:47:57
Writing application : mkvmerge v29.0.0 ('Like It Or Not') 64-bit
Writing library : libebml v1.3.6 + libmatroska v1.4.9
Cover : Yes
Attachments : cover

Video
ID : 1
Format : AVC
Format/Info : Advanced Video Codec
Format profile : High@L4.1
Format settings : CABAC / 10 Ref Frames
Format settings, CABAC : Yes
Format settings, ReFrames : 10 frames
Codec ID : V_MPEG4/ISO/AVC
Duration : 1 h 46 min
Bit rate : 2 423 kb/s
Width : 1 120 pixels
Height : 630 pixels
Display aspect ratio : 16:9
Frame rate mode : Constant
Frame rate : 23.976 (24000/1001) FPS
Color space : YUV
Chroma subsampling : 4:2:0
Bit depth : 8 bits
Scan type : Progressive
Bits/(Pixel*Frame) : 0.143
Stream size : 1.80 GiB (64%)
Writing library : x264 core 148 r2638 7599210
Encoding settings : cabac=1 / ref=10 / deblock=1:-3:-2 / analyse=0x3:0x133 / me=umh / subme=10 / psy=1 / psy_rd=1.00:0.00 / mixed_ref=1 / me_range=32 / chroma_me=1 / trellis=2 / 8x8dct=1 / cqm=0 / deadzone=21,11 / fast_pskip=0 / chroma_qp_offset=-2 / threads=6 / lookahead_threads=1 / sliced_threads=0 / nr=0 / decimate=1 / interlaced=0 / bluray_compat=0 / constrained_intra=0 / bframes=14 / b_pyramid=2 / b_adapt=2 / b_bias=0 / direct=1 / weightb=1 / open_gop=0 / weightp=2 / keyint=250 / keyint_min=23 / scenecut=40 / intra_refresh=0 / rc=crf / mbtree=0 / crf=20.3 / qcomp=0.65 / qpmin=0 / qpmax=69 / qpstep=4 / ip_ratio=1.40 / pb_ratio=1.30 / aq=3:0.90
Language : English
Default : Yes
Forced : No

Audio #1
ID : 2
Format : AC-3
Format/Info : Audio Coding 3
Commercial name : Dolby Digital
Codec ID : A_AC3
Duration : 1 h 46 min
Bit rate mode : Constant
Bit rate : 448 kb/s
Channel(s) : 6 channels
Channel layout : L R C LFE Ls Rs
Sampling rate : 48.0 kHz
Frame rate : 31.250 FPS (1536 SPF)
Bit depth : 16 bits
Compression mode : Lossy
Delay relative to video : 27 ms
Stream size : 341 MiB (12%)
Title : Дубляж (BD CEE)
Language : Russian
Service kind : Complete Main
Default : Yes
Forced : Yes

Audio #2
ID : 3
Format : AC-3
Format/Info : Audio Coding 3
Commercial name : Dolby Digital
Codec ID : A_AC3
Duration : 1 h 46 min
Bit rate mode : Constant
Bit rate : 448 kb/s
Channel(s) : 6 channels
Channel layout : L R C LFE Ls Rs
Sampling rate : 48.0 kHz
Frame rate : 31.250 FPS (1536 SPF)
Bit depth : 16 bits
Compression mode : Lossy
Stream size : 341 MiB (12%)
Title : Киномания
Language : Russian
Service kind : Complete Main
Default : No
Forced : No

Audio #3
ID : 4
Format : AC-3
Format/Info : Audio Coding 3
Commercial name : Dolby Digital
Codec ID : A_AC3
Duration : 1 h 46 min
Bit rate mode : Constant
Bit rate : 448 kb/s
Channel(s) : 6 channels
Channel layout : L R C LFE Ls Rs
Sampling rate : 48.0 kHz
Frame rate : 31.250 FPS (1536 SPF)
Bit depth : 16 bits
Compression mode : Lossy
Stream size : 341 MiB (12%)
Title : Гаврилов
Language : Russian
Service kind : Complete Main
Default : No
Forced : No

Text #1
ID : 5
Format : UTF-8
Codec ID : S_TEXT/UTF8
Codec ID/Info : UTF-8 Plain Text
Duration : 1 h 39 min
Bit rate : 44 b/s
Count of elements : 596
Stream size : 32.2 KiB (0%)
Title : Full - R5
Language : Russian
Default : No
Forced : No

Text #2
ID : 6
Format : UTF-8
Codec ID : S_TEXT/UTF8
Codec ID/Info : UTF-8 Plain Text
Duration : 1 h 39 min
Bit rate : 39 b/s
Count of elements : 563
Stream size : 28.5 KiB (0%)
Title : Full - Киномания
Language : Russian
Default : No
Forced : No

Text #3
ID : 7
Format : UTF-8
Codec ID : S_TEXT/UTF8
Codec ID/Info : UTF-8 Plain Text
Duration : 1 h 36 min
Bit rate : 20 b/s
Count of elements : 421
Stream size : 14.5 KiB (0%)
Title : Full
Language : English
Default : No
Forced : No

Menu
00:00:00.000 : :Start
00:09:46.707 : :The Last Hope
00:12:21.321 : :Respect the Elders
00:15:38.936 : :No Going Back
00:17:18.326 : :Carving a New Course
00:23:12.387 : :Can't Bear the Hunger
00:29:31.601 : :Road Rage Reunion
00:33:48.441 : :A Burning Need
00:38:58.208 : :Leaving No Trace
00:41:18.681 : :Relic of Memory
00:43:32.106 : :The Exile's Snare
00:47:21.335 : :Time for Answers
00:49:12.155 : :Truth and Legend
00:56:44.148 : :Impailing Interrogation
01:00:00.510 : :Father of the War
01:03:09.114 : :Bleeding the Map
01:05:49.150 : :Pain of Helplessness
01:07:14.902 : :Divine Aspiration
01:10:32.265 : :The Future Begins
01:13:43.375 : :The Past Fades Away
01:15:58.216 : :A Forgotton Chamber
01:17:17.255 : :A Submerged Entry
01:20:18.185 : :Brothers Reunited
01:21:26.502 : :"We're Too Late."
01:25:30.081 : :Explosive Encounter
01:28:43.480 : :Outnumbered
01:32:11.230 : :A Monstrous Duel
01:35:54.121 : :Light of New Hope


_________________
Проголосуй за трекер Открытый торрент трекер - RUS-MEDIA.ORG

Проголосуй Открытый торрент трекер - RUS-MEDIA.ORG


Скачать книги и аудио книги через торрент


Вернуться к началу
 Профиль Отправить личное сообщение  
 
   Похожие торренты   Автор   Торрент   Размер 
В этой теме нет новых непрочитанных сообщений. Другой мир / Underworld [фантастика, боевик, 2003] BDRip-AVC, Dub [Театральная версия] [Open Matte]

salma3

0 | 0

1.8 ГБ

В этой теме нет новых непрочитанных сообщений. Пророк / Next [Фантастика, боевик, триллер, 2007] HDRip-AVC, Dub [Open Matte]

salma3

0 | 0

2.18 ГБ

В этой теме нет новых непрочитанных сообщений. Дежавю / Deja Vu [фантастика, триллер, 2006] HDTVRip-AVC, Dub [Open Matte]

salma3

12 | 3

2.14 ГБ

В этой теме нет новых непрочитанных сообщений. Черная книга / Zwartboek [Триллер, драма, военный, 2006] HDRip-AVC, Dub [Open Matte]

salma3

0 | 0

2.9 ГБ

В этой теме нет новых непрочитанных сообщений. Мститель / The Spirit [боевик, триллер, комедия, 2008] HDRip-AVC, Dub [Open Matte]

salma3

0 | 0

1.97 ГБ

В этой теме нет новых непрочитанных сообщений. Неудержимые / The Expendables [боевик, триллер, приключения, 2010] HDRip-AVC, Dub [Open Matte]

salma3

0 | 0

1.79 ГБ

В этой теме нет новых непрочитанных сообщений. Суррогаты / Surrogates [Фантастика, боевик, триллер, 2009] WEB-DLRip-AVC, Dub [Open Matte]

salma3

0 | 0

2.29 ГБ


Начать новую тему Ответить на тему  [ 1 сообщение ] 




Для Мосгорсуда, Роскомнадзора и рекламодателей:: rstracker[собака]yandex.ru
cron