Торрент файл
скачать торрент магнет ссылка Добавлен: 28 апр 2011, 22:49
Размер: 1.45 ГБ
Сидеров: 24
Личеров: 5
Автор

СообщениеДобавлено: 28 апр 2011, 22:49 

Не в сети
Супермодератор
Аватара пользователя
Дата регистрации:
22 май 2010, 11:03
Возраст: 31
Спасибо: 7509 / 13
Сообщения: 49940
Впритык / Due Date


Слоган: "Когда все через..."

Перевод: Профессиональный (полное дублирование)
Субтитры: Русские, русские (форсированные), английские

Формат: HDRip-AVC, MKV, H.264, AC3
Страна: США
Режиссер: Тодд Филлипс
Жанр: комедия
Продолжительность: 01:35:00
Год выпуска: 2010

В ролях: Роберт Дауни мл., Зак Галифианакис, Мишель Монахэн, Джейми Фокс, Джульетт Льюис, Дэнни МакБрайд, РЗА, Мэтт Уолш, Броди Стивенс, Джейкоб Ульрих.

Описание: Питер готовится стать отцом и находится на грани нервного срыва. И его нервам не идет на пользу тот факт, что ему предстоит предпринять целое путешествие, да еще и в компании честолюбивого актера, чтобы успеть добраться домой к рождению собственного ребенка.





Видео: 1040x432 (2,40:1); 1801 kbps; 23,976 fps; AVC(x264); ; 0.167 bit/pixel
Аудио: 48 KHz; AC3; 6 ch (Front: L C R, Side: L R, LFE); ~384 kbps



Общее
Уникальный идентификатор: 199225734655909830797412533075666208294 (0x95E17B1624CA72B486F563F53B430626)
Полное имя: D:\Для раздачи\Vprityk_[tfile.ru].mkv
Формат: Matroska
Размер файла: 1,45 Гбайт
Продолжительность: 1 ч. 35 м.
Общий поток: 2186 Кбит/сек
Название фильма: Vprityk (2010) Release by Vaippp [OpenSharing Team]
Дата кодирования: UTC 2011-03-01 21:05:28
Программа кодирования: mkvmerge v4.4.0 ('Die Wiederkehr') сборка от Oct 31 2010 21:52:48
Библиотека кодирования: libebml v1.0.0 + libmatroska v1.0.0

Видео
Идентификатор: 1
Формат: AVC
Формат/Информация: Advanced Video Codec
Профиль формата:
Параметр CABAC формата: Да
Параметр ReFrames формата: 9 кадры
Идентификатор кодека: V_MPEG4/ISO/AVC
Продолжительность: 1 ч. 35 м.
Битрейт: 1801 Кбит/сек
Ширина: 1040 пикс.
Высота: 432 пикс.
Соотношение сторон: 2,40:1
Частота кадров: 23,976 кадр/сек
Цветовое пространство: YUV
Подвыборка цветности: 4:2:0
Битовая глубина: 8 бит
Тип развёртки: Прогрессивная
Бит/(Пиксели*Кадры): 0.167
Размер потока: 1,17 Гбайт (80%)
Заголовок: HDRip by Vaippp
Библиотека кодирования: x264 core 112 r1867 22bfd31
Настройки программы: cabac=1 / ref=9 / deblock=1:-2:-1 / analyse=0x3:0x113 / me=umh / subme=9 / psy=1 / psy_rd=1.00:0.10 / mixed_ref=1 / me_range=32 / chroma_me=1 / trellis=2 / 8x8dct=1 / cqm=0 / deadzone=21,11 / fast_pskip=0 / chroma_qp_offset=-3 / threads=4 / sliced_threads=0 / nr=0 / decimate=1 / interlaced=0 / constrained_intra=0 / bframes=8 / b_pyramid=2 / b_adapt=2 / b_bias=0 / direct=3 / weightb=1 / open_gop=0 / weightp=2 / keyint=250 / keyint_min=23 / scenecut=40 / intra_refresh=0 / rc_lookahead=60 / rc=2pass / mbtree=1 / bitrate=1801 / ratetol=1.0 / qcomp=0.60 / qpmin=10 / qpmax=51 / qpstep=4 / cplxblur=20.0 / qblur=0.5 / ip_ratio=1.40 / aq=1:1.00
Язык: English

Аудио
Идентификатор: 2
Формат: AC-3
Формат/Информация: Audio Coding 3
Расширение режима: CM (complete main)
Идентификатор кодека: A_AC3
Продолжительность: 1 ч. 35 м.
Вид битрейта: Постоянный
Битрейт: 384 Кбит/сек
Канал(ы): 6 канала(ов)
Расположение каналов: Front: L C R, Side: L R, LFE
Частота: 48,0 КГц
Битовая глубина: 16 бит
Метод сжатия: С потерями
Размер потока: 262 Мбайт (18%)
Заголовок: DUB R5
Язык: Russian

Текст #1
Идентификатор: 3
Формат: UTF-8
Идентификатор кодека: S_TEXT/UTF8
Идентификатор кодека/Информация: UTF-8 Plain Text
Заголовок: Full
Язык: Russian

Текст #2
Идентификатор: 4
Формат: UTF-8
Идентификатор кодека: S_TEXT/UTF8
Идентификатор кодека/Информация: UTF-8 Plain Text
Заголовок: Forced
Язык: Russian

Текст #3
Идентификатор: 5
Формат: UTF-8
Идентификатор кодека: S_TEXT/UTF8
Идентификатор кодека/Информация: UTF-8 Plain Text
Язык: English
* Белый французский бульдог появляется и в фильме «Впритык» (2010) и в «Мальчишник в Вегасе» (2009), однако это не один и тот же пес. Скотт Будник является исполнительным продюсером обоих фильмов и владельцем французских бульдогов.
* Черный пикап, который ведет Деррил (персонаж Джейми Фокса), это Dodge Warlock, который производился только в период с 1976 до 1979 год.
* В кинотеатры фильм привозили под кодовым названием «Maternity Day» (День материнства)













реклама партнёра


Вернуться к началу
 Профиль Отправить личное сообщение  
 
   Похожие торренты   Автор   Торрент   Размер 
В этой теме нет новых непрочитанных сообщений. Парни со стволами / War Dogs (Тодд Филлипс) [2016, драма, комедия, криминал, военный, BDRip 720p | iTunes] Dub

marya111

716 | 48

4.69 ГБ

В этой теме нет новых непрочитанных сообщений. Мой друг – гей / Date and Switch [комедия, 2014] HDRip, avo

Dracon

552 | 21

1.37 ГБ

В этой теме нет новых непрочитанных сообщений. Последние девушки / The Final Girls (Тодд Штраус-Шульсон) [Ужасы, комедия, 2015] HDRip, Mvo [iTunes]

Dracon

2611 | 45

1.45 ГБ

В этой теме нет новых непрочитанных сообщений. [18YearsOld.com / PornPros.com] Anita Bellini ( Date Dp / 26.06.15 ) [2015 г., all sex, anal, dp, HDrip, 480p]

killerslava

15 | 1

544.18 МБ

В этой теме нет новых непрочитанных сообщений. Капитан Филлипс  / Captain Phillips [Боевик, триллер, драма, 2013] HDRip, Dvo

Dracon

144 | 11

2.05 ГБ

В этой теме нет новых непрочитанных сообщений. Капитан Филлипс / Captain Phillips [Боевик, триллер, драма, 2013] HDRip, Dub [Лицензия]

Dracon

411 | 29

2.05 ГБ

В этой теме нет новых непрочитанных сообщений. Мой друг - гей / Date and Switch [комедия, 2014] BDRip 720p, avo

Dracon

62 | 6

4.49 ГБ


Начать новую тему Ответить на тему  [ 1 сообщение ] 




Для Мосгорсуда, Роскомнадзора и рекламодателей:: mosgorsud-torrent[собачка]yandex.ru