Торрент файл
скачать торрент магнет ссылка Добавлен: 28 апр 2011, 22:43
Размер: 2.16 ГБ
Сидеров: 47
Личеров: 10
Автор

СообщениеДобавлено: 28 апр 2011, 22:43 

Не в сети
Супермодератор
Аватара пользователя
Дата регистрации:
22 май 2010, 11:03
Возраст: 32
Спасибо: 7690 / 13
Сообщения: 49871
Такси 4 / Taxi 4




Перевод: Профессиональный (полное дублирование)
Субтитры: Отсутствуют
Формат: НDRip (720p), MKV, H.264, AC3

Страна: Франция

Режиссер: Жерар Кравчик
Жанр: Комедия, Боевик
Продолжительность: 01:30:53
Год выпуска: 2007

В ролях: Сэми Насери, Фредерик Дифенталь, Бернар Фарси, Эмма Сьоберг, Эдуард Монтут, Жан-Кристоф Буве, Франсуа Дамьен, Фредерик Тирмон

Описание: Преступника №1 транспортируют из Бельгии в Конго. .. через Марсель. Всего несколько часов самый опасный человек в мире, надежно упакованный в скафандр и железную клетку, должен пробыть в полицейском участке комиссара Жибера.
Но стеречь преступника доверили Эмильену… Петра внедрится в банду и очарует злодея, Жибер задаст жару бандитам и покажет, как настоящие французы играют в футбол. И, конечно, полицейским Марселя опять не обойтись без помощи Даниеля и его реактивного такси.






Видео: 1280*544(2,35:1), 23,976 fps, MPEG4/ISO/AVC , , х264, ~ 2 690 Kbps avg, 0.161 bit/pixel
Аудио#1: |Русский|48,0 KHz,AC3 LCR, L,R, LFE, 6 channels,320 Kbps|Дубирование|
Аудио#2: |Украинский|48,0 KHz,AC3 LCR, L,R, LFE, 6 channels,320 Kbps|Профессиональный (многоголосый, закадровый)|

Рип с Лицензионного Blu-Ray (720p)


В США:
--
В других странах:
$65 114 152
В России:
$12 050 482
Общие сборы:
$65 114 152


1.Pump it
Black Eyed Peas 3:35

2.Quoi quil arrive
Sniper 3:44

3.Symphonie damour
Kery James feat Anissa Stili 5:43

4.Avec tout mon amour
Melissa feat Akhenaton 3:38

5.Ghetto
J-Mi Sissoko feat Lino 4:15

6.Etre un homme
Bakar 3:04

7.Victoire (remix)
Shym 3:25

8.Generation taxi
El Matador 3:41

9.Rien а foutre
Tunisiano 3:58

10.Mets les gaz
Saпan Supa Crew 4:15

11.Anticonformiste
K-Reen feat Ol Kainry 3:56

12.Les contraires
Medine 4:56

13.On vous gкne...
Mafia Ki Fry 4:59

14.Benthi
Melissa et Khaled 4:43

15.Qui on appelle ?!
Taпro et Diams 3:11

16.Frйrot
Sir Samuel 4:28

17.Nahreg Alik
Akil 3:47

18.Ennemi dйtat
Sinik 4:33

19.Legende dhiver
Nessbeal feat K-Reen 3:55

20.Hommage
Rimk feat Gimenez.E 3:38

21.Taximan
L.I.M, Larsen et Boulox 4:54

22.Ennemi public
Grodash 3:28

23.Retour а la base
Kalash LAfro (Berreta) 3:31

D:\Films\Taxi 4.mkv
General
Complete name : D:\Films\Taxi 4.mkv
Format : Matroska
File size : 2.16 GiB
Duration : 1h 30mn
Overall bit rate : 3 398 Kbps
Movie name : BDRip by BuDuLie(FLINTFILMS.RU)
Encoded date : UTC 2010-08-05 19:31:42
Writing application : mkvmerge v4.2.0 ('No Talking') сборка от Jul 29 2010 19:19:44
Writing library : libebml v1.0.0 + libmatroska v1.0.0
Video #1
ID : 1
Format : AVC
Format/Info : Advanced Video Codec
Format profile :
Format settings, CABAC : Yes
Format settings, ReFrames : 3 frames
Muxing mode : Container profile=Unknown@4.1
Codec ID : V_MPEG4/ISO/AVC
Duration : 1h 30mn
Bit rate : 2 690 Kbps
Nominal bit rate : 2 803 Kbps
Width : 1 280 pixels
Height : 544 pixels
Display aspect ratio : 2.35:1
Frame rate : 24.000 fps
Resolution : 24 bits
Colorimetry : 4:2:0
Scan type : Progressive
Bits/(Pixel*Frame) : 0.161
Stream size : 1.71 GiB (79%)
Writing library : x264 core 104 r1688 0b36c6d
Encoding settings : cabac=1 / ref=1 / deblock=1:0:0 / analyse=0x3:0x3 / me=dia / subme=1 / psy=1 / psy_rd=0.00:0.00 / mixed_ref=0 / me_range=16 / chroma_me=1 / trellis=0 / 8x8dct=1 / cqm=0 / deadzone=21,11 / fast_pskip=1 / chroma_qp_offset=0 / threads=1 / sliced_threads=0 / slices=4 / nr=0 / decimate=1 / interlaced=0 / constrained_intra=0 / bframes=3 / b_pyramid=1 / b_adapt=1 / b_bias=0 / direct=1 / weightb=1 / open_gop=0 / weightp=0 / keyint=24 / keyint_min=1 / scenecut=40 / intra_refresh=0 / rc_lookahead=0 / rc=abr / mbtree=0 / bitrate=2803 / ratetol=1.0 / qcomp=0.60 / qpmin=0 / qpmax=51 / qpstep=4 / vbv_maxrate=17500 / vbv_bufsize=14500 / ip_ratio=1.10 / pb_ratio=1.10 / aq=1:1.00 / nal_hrd=vbr
Audio #2
ID : 2
Format : AC-3
Format/Info : Audio Coding 3
Codec ID : A_AC3
Duration : 1h 30mn
Bit rate mode : Constant
Bit rate : 320 Kbps
Channel(s) : 6 channels
Channel positions : Front: L C R, Surround: L R, LFE
Sampling rate : 48.0 KHz
Stream size : 208 MiB (9%)
Title : Дубляж
Language : Russian
Audio #3
ID : 3
Format : AC-3
Format/Info : Audio Coding 3
Codec ID : A_AC3
Duration : 1h 30mn
Bit rate mode : Constant
Bit rate : 320 Kbps
Channel(s) : 6 channels
Channel positions : Front: L C R, Surround: L R, LFE
Sampling rate : 48.0 KHz
Stream size : 208 MiB (9%)
Title : Многоголосный
Language : Ukrainian



______________________________











реклама партнёра


Вернуться к началу
 Профиль Отправить личное сообщение  
 
   Похожие торренты   Автор   Торрент   Размер 
В этой теме нет новых непрочитанных сообщений. Такси 4 / Taxi 4 / T4xi [боевик, комедия, 2007] BDRip, Dub [Театральная версия]

salma3

15 | 18

1.45 ГБ

В этой теме нет новых непрочитанных сообщений. Такси 3 / Taxi 3 [боевик, комедия, 2003] BDRip, Dub

salma3

74 | 17

1.45 ГБ

В этой теме нет новых непрочитанных сообщений. Такси 2 / Taxi 2 [боевик, комедия, криминал, 2000] BDRip, Dub

salma3

58 | 24

1.45 ГБ

В этой теме нет новых непрочитанных сообщений. Такси / Taxi [боевик, комедия, криминал, 1998] BDRip, Dub

salma3

114 | 20

1.45 ГБ

В этой теме нет новых непрочитанных сообщений. Нью-Йоркское такси / Taxi [боевик, комедия, криминал, 2004] BDRip, Dub

salma3

116 | 23

1.45 ГБ

В этой теме нет новых непрочитанных сообщений. Такси: Южный Бруклин / Taxi Brooklyn [S01] [боевик, драма, комедия, криминал, 2014] HDTVRip, Avo

salma3

21 | 15

4.55 ГБ

В этой теме нет новых непрочитанных сообщений. Такси / Taxi (Джафар Панахи) [Драма, комедия, 2015] WEB-DL 1080p, Mvo [iTunes]

Dracon

572 | 17

3.1 ГБ


Начать новую тему Ответить на тему  [ 1 сообщение ] 




Для Мосгорсуда, Роскомнадзора и рекламодателей:: mosgorsud-torrent[собачка]yandex.ru