Торрент файл
скачать торрент магнет ссылка Добавлен: 28 апр 2011, 22:40
Размер: 1.47 ГБ
Сидеров: 134
Личеров: 9
Автор

СообщениеДобавлено: 28 апр 2011, 22:40 

Не в сети
Супермодератор
Аватара пользователя
Дата регистрации:
22 май 2010, 11:03
Возраст: 31
Спасибо: 7509 / 13
Сообщения: 49940
Дневник слабака / Diary of a Wimpy Kid



«How to be cool»

Перевод: Профессиональный (многоголосый, закадровый), cубтитры: Русские (форсированные + полные), английские
Формат: HDRip, MKV, H.264, AC3

Страна: США
Режиссер: Тор Фреденталь
Жанр: комедия, семейный

Продолжительность: 01:32:33
Год выпуска: 2010

В ролях: Захари Гордан, Роберт Капрон, Рэйчел Харрис, Стив Зан, Коннор Филдинг, Оуэн Филдинг, Девон Бостик, Хлоя Морец, Каран Брэр, Грэйсон Расселл

Описание: Экранизация популярной серии книг Джеффа Кинни, повествующей о приключениях вполне себе среднего ученика такой же средней школы, Грега Хеффли и его лучшего друга Роули Джефферсона.







Видео: 856 x 460 (1.861:1), 23.976 fps, AVC (х264) , ~1 840 Kbps avg, 0.195 bit/pixel
Аудио: 48 kHz, АС3, 6 ch, 384 kbps avg

Доп. информация:Рип с лицензии


General
Unique ID: 219043643919697539573548829606702948566 (0xA4CA45739B3EAFCDA49CE3B4EC7320D6)
Complete name: D:\Films\Dnevnik_slabaka_[tfile.ru].mkv
Format: Matroska
File size: 1.47 GiB
Duration: 1h 32mn
Overall bit rate: 2 269 Kbps
Movie name: Дневник слабака / Diary of a Wimpy Kid (2010) HDRip-AVC от FireBit
Encoded date: UTC 2011-02-11 19:08:01
Writing application: mkvmerge v2.3.0 ('Freak U') built on Sep8 2008 18:32:16
Writing library: libebml v0.7.7 + libmatroska v0.8.1

Video
ID: 1
Format: AVC
Format/Info: Advanced Video Codec
Format profile:
Format settings, CABAC: Yes
Format settings, ReFrames: 4 frames
Codec ID: V_MPEG4/ISO/AVC
Duration: 1h 32mn
Bit rate: 1 840 Kbps
Width: 856 pixels
Height: 460 pixels
Display aspect ratio: 1.861
Frame rate: 23.976 fps
Color space: YUV
Chroma subsampling: 4:2:0
Bit depth: 8 bits
Scan type: Progressive
Bits/(Pixel*Frame): 0.195
Stream size: 1.19 GiB (81%)
Language: English

Audio
ID: 2
Format: AC-3
Format/Info: Audio Coding 3
Mode extension: CM (complete main)
Codec ID: A_AC3
Duration: 1h 32mn
Bit rate mode: Constant
Bit rate: 384 Kbps
Channel(s): 6 channels
Channel positions: Front: L C R, Side: L R, LFE
Sampling rate: 48.0 KHz
Bit depth: 16 bits
Compression mode: Lossy
Delay relative to video: 17ms
Stream size: 254 MiB (17%)
Language: Russian

Text #1
ID: 3
Format: UTF-8
Codec ID: S_TEXT/UTF8
Codec ID/Info: UTF-8 Plain Text
Language: Russian

Text #2
ID: 4
Format: UTF-8
Codec ID: S_TEXT/UTF8
Codec ID/Info: UTF-8 Plain Text
Language: Russian

Text #3
ID: 5
Format: UTF-8
Codec ID: S_TEXT/UTF8
Codec ID/Info: UTF-8 Plain Text
Language: English













реклама партнёра


Вернуться к началу
 Профиль Отправить личное сообщение  
 
   Похожие торренты   Автор   Торрент   Размер 
В этой теме нет новых непрочитанных сообщений. Дневник девочки-подростка / The Diary of a Teenage Girl [Драма, мелодрама, 2015] HDRip, Mvo [iTunes]

Dracon

656 | 43

1.46 ГБ

В этой теме нет новых непрочитанных сообщений. Дневник девочки-подростка / The Diary of a Teenage Girl [Драма, мелодрама, 2015] HDRip, Mvo [iTunes]

Dracon

223 | 11

2.04 ГБ

В этой теме нет новых непрочитанных сообщений. Мой безумный дневник / My Mad Fat Diary [S01] (Бен Карон, Тим Кирби) [драма, комедия, 2013] HDTVRip [ViruseProject]

Dracon

90 | 7

3.32 ГБ

В этой теме нет новых непрочитанных сообщений. Мой безумный дневник / My Mad Fat Diary [s02] (Алекс Винклер, Бенжамин Карон, Тим Кирби) [драма, комедия, 2014] HDTVRip [ViruseProject]

Dracon

24 | 6

5.21 ГБ

В этой теме нет новых непрочитанных сообщений. Дневник извращенца / Diary of a Perv (2014) WEB-DL

friizze

159 | 462

2.7 ГБ

В этой теме нет новых непрочитанных сообщений. Дневник сумасшедшего / Diary of a Madman [мистический триллер, 1962] DVDRip, Dvo

salma3

16 | 6

1.46 ГБ

В этой теме нет новых непрочитанных сообщений. Дневник наемного убийцы / Diary of a Hitman [триллер, драма, криминал, 1991] HDTVRip, Dvo [НТВ+]

salma3

22 | 3

1.47 ГБ


Начать новую тему Ответить на тему  [ 1 сообщение ] 




Для Мосгорсуда, Роскомнадзора и рекламодателей:: mosgorsud-torrent[собачка]yandex.ru