Торрент файл
скачать торрент магнет ссылка Добавлен: 28 апр 2011, 22:39
Размер: 1.78 ГБ
Сидеров: 89
Личеров: 14
Автор

СообщениеДобавлено: 28 апр 2011, 22:39 

Не в сети
Супермодератор
Аватара пользователя
Дата регистрации:
22 май 2010, 11:03
Возраст: 31
Спасибо: 7615 / 13
Сообщения: 49936
На расстоянии любви / Going the Distance



«Любовь обмену и возврату не подлежит»

Перевод: Профессиональный (полное дублирование), cубтитры: русские, английские
Формат: BDRip, MKV, H.264, AC3

Страна: США
Режиссер: Нанетт Бурстейн
Жанр: мелодрама, комедия

Продолжительность: 01:42:35
Год выпуска: 2010

В ролях: Дрю Бэрримор, Джастин Лонг, Чарли Дэй, Джейсон Судейкис, Кристина Эпплгейт, Рон Ливингстон, Джим Гэффиган, Натали Моралес, Келли Гарнер

Описание: За пивом, разговорами о пустяках в баре и… за завтраком следующим утром безграничное остроумие и неподдельная искренность Эрин очаровывают недавно пережившего расставание Гарретта. Страсть вспыхнула и переросла в настоящую бурю чувств, захватившую молодых людей на все лето, но никто не ждал, что у романа может быть продолжение — ведь Эрин отправляется домой в Сан-Франциско, а Гарретт остается работать в Нью-Йорке. Однако шесть недель безумного веселья неожиданно стали очень значимыми, и оба больше не уверены, хотят ли они, чтобы все вдруг закончилось







Видео: 1024x432 (2.35:1), 23.976 fps, AVC MPEG4 (x264) , ~1645 kbps, 0.16 bit/pixel
Аудио #1: Русский: 48 kHz, AC3 Dolby Digital, 3/2 (L,C,R,l,r) + LFE ch, ~384.00 kbps avg [Профессиональный (полное дублирование)]
Аудио #2: Английский: 48 kHz, AC3 Dolby Digital, 3/2 (L,C,R,l,r) + LFE ch, ~384.00 kbps avg [Оригинал (внешний)]



General
Unique ID: 237214080035663246473546442596409342699 (0xB275C51E8796DB6FACD8E1D955A2FAEB)
Complete name: D:\Films\Na_rasstojanii_ljubvi_[tfile.ru]\Na_rasstojanii_ljubvi_[tfile.ru].mkv
Format: Matroska
File size: 1.45 GiB
Duration: 1h 42mn
Overall bit rate: 2 029 Kbps
Movie name: Na.rasstojanii.ljubvi.chopper887
Encoded date: UTC 2011-01-28 15:31:04
Writing application: mkvmerge v4.4.0 ('Die Wiederkehr') сборка от Nov7 2010 22:17:07
Writing library: libebml v1.0.0 + libmatroska v1.0.0

Video
ID: 1
Format: AVC
Format/Info: Advanced Video Codec
Format profile:
Format settings, CABAC: Yes
Format settings, ReFrames: 6 frames
Codec ID: V_MPEG4/ISO/AVC
Duration: 1h 42mn
Bit rate: 1 645 Kbps
Width: 1 024 pixels
Height: 432 pixels
Display aspect ratio: 2.35:1
Frame rate: 23.976 fps
Color space: YUV
Chroma subsampling: 4:2:0
Bit depth: 8 bits
Scan type: Progressive
Bits/(Pixel*Frame): 0.155
Stream size: 1.15 GiB (79%)
Title: Na.rasstojanii.ljubvi.chopper887
Writing library: x264 core 112 r1867 22bfd31
Encoding settings: cabac=1 / ref=6 / deblock=1:-2:-1 / analyse=0x3:0x133 / me=umh / subme=9 / psy=1 / psy_rd=1.00:0.10 / mixed_ref=1 / me_range=32 / chroma_me=0 / trellis=2 / 8x8dct=1 / cqm=0 / deadzone=21,11 / fast_pskip=0 / chroma_qp_offset=-3 / threads=3 / sliced_threads=0 / nr=0 / decimate=1 / interlaced=0 / constrained_intra=0 / bframes=8 / b_pyramid=2 / b_adapt=2 / b_bias=0 / direct=3 / weightb=1 / open_gop=0 / weightp=2 / keyint=250 / keyint_min=23 / scenecut=40 / intra_refresh=0 / rc_lookahead=60 / rc=2pass / mbtree=1 / bitrate=1645 / ratetol=1.0 / qcomp=0.70 / qpmin=10 / qpmax=51 / qpstep=4 / cplxblur=20.0 / qblur=0.5 / ip_ratio=1.40 / aq=1:1.00
Language: English

Audio
ID: 2
Format: AC-3
Format/Info: Audio Coding 3
Mode extension: CM (complete main)
Codec ID: A_AC3
Duration: 1h 42mn
Bit rate mode: Constant
Bit rate: 384 Kbps
Channel(s): 6 channels
Channel positions: Front: L C R, Side: L R, LFE
Sampling rate: 48.0 KHz
Bit depth: 16 bits
Compression mode: Lossy
Stream size: 282 MiB (19%)
Title: Дубляж

Text #1
ID: 3
Format: UTF-8
Codec ID: S_TEXT/UTF8
Codec ID/Info: UTF-8 Plain Text
Title: Русские

Text #2
ID: 4
Format: UTF-8
Codec ID: S_TEXT/UTF8
Codec ID/Info: UTF-8 Plain Text
Title: Английские















реклама партнёра


Вернуться к началу
 Профиль Отправить личное сообщение  
 
   Похожие торренты   Автор   Торрент   Размер 
В этой теме нет новых непрочитанных сообщений. На расстоянии удара / Striking Distance [Боевик, триллер, криминал, детектив, 1993] BDRip, Mvo

salma3

12 | 0

1.48 ГБ

В этой теме нет новых непрочитанных сообщений. На расстоянии удара / Striking Distance [детектив, триллер, драма, боевик, 1993] HDRip, Dub

salma3

33 | 3

1.45 ГБ

В этой теме нет новых непрочитанных сообщений. Бизнес ради любви / Beauty & the briefcase [мелодрама, комедия, 2010] BDRip 720p, Dvo+Sub

salma3

37 | 4

3.42 ГБ

В этой теме нет новых непрочитанных сообщений. 10 000 км: Любовь на расстоянии / 10.000 Km (Карлос Маркус-Марсет) [драма, мелодрама, комедия, 2014] WEB-DLRip, Mvo

Dracon

101 | 4

1.36 ГБ

В этой теме нет новых непрочитанных сообщений. 10 000 км: Любовь на расстоянии / 10.000 Km (Карлос Маркус-Марсет) [драма, мелодрама, комедия, 2014] WEB-DL 1080p, Mvo

Dracon

21 | 1

3.01 ГБ

В этой теме нет новых непрочитанных сообщений. История вечной любви / Ever After: A Cinderella Story [драма, мелодрама, комедия, 1998] BDRip 720p, 2Mvo+Sub

salma3

14 | 6

4.61 ГБ

В этой теме нет новых непрочитанных сообщений. Distance Call - Distance Call (Limited Edition) [2011, Heavy Metal, MP3]

PriZraK

0 | 1

165.44 МБ


Начать новую тему Ответить на тему  [ 1 сообщение ] 




Для Мосгорсуда, Роскомнадзора и рекламодателей:: mosgorsud-torrent[собачка]yandex.ru