Торрент файл
скачать торрент магнет ссылка Добавлен: 28 апр 2011, 22:30
Размер: 1.46 ГБ
Сидеров: 668
Личеров: 16
Автор

СообщениеДобавлено: 28 апр 2011, 22:30 

Не в сети
Супермодератор
Аватара пользователя
Дата регистрации:
22 май 2010, 11:03
Возраст: 31
Спасибо: 7509 / 13
Сообщения: 49940
Путешествия Гулливера / Gulliver's Travels



Перевод: Профессиональный (полное дублирование), cубтитры: (русские, отключаемые)

Слоган:«Чем больше шкаф, тем громче падает»

Формат: DVDRip-AVC, MKV, H.264, AC3
Страна: США
Режиссер: Роб Леттерман
Жанр: фэнтези, комедия, приключения
Продолжительность: 01:21:12
Год выпуска: 2010

В ролях: Джек Блэк, Джейсон Сигел, Эмили Блант, Аманда Пит, Билли Коннолли, Криc О’Дауд, ТиДжей Миллер, Джеймс Корден, Кэтрин Тейт, Эмманюэль Куатра

Описание: Лемюэль Гулливер, ищущий славы и сенсационного материала, отправляется в Бермудский треугольник, одно из самых таинственных мест планеты. Оттуда шторм уносит его в неизвестном направлении к острову, населенному крошечным народом, благодаря которому Гулливер вырвется из своего тесного мирка в большой мир.


Рейтинг на MPAA: PG

Видео: 720x432@1024x432 (2.35:1), 25 fps, MPEG4 AVC (x264) , ~2180 kbps avg, 0.206 bit/pixel
Аудио: 48 KHz, AC3, 2 ch, ~384 kbps avg

Дополнительная информация:
бюджет = $112 000 000
сборы в США = $41 138 114
сборы в мире + $125 700 000 = $166 838 114
сборы в России = $16 836 461




[Рип с Лицензии!]

Video #1
ID : 1
Format : AVC
Format/Info : Advanced Video Codec
Format profile :
Format settings, CABAC : Yes
Format settings, ReFrames : 8 frames
Muxing mode : Container profile=Unknown@3.1
Codec ID : V_MPEG4/ISO/AVC
Duration : 1h 21mn
Bit rate : 2 131 Kbps
Nominal bit rate : 2 180 Kbps
Width : 720 pixels
Height : 432 pixels
Display aspect ratio : 2.35:1
Frame rate : 25.000 fps
Resolution : 24 bits
Colorimetry : 4:2:0
Scan type : Progressive
Bits/(Pixel*Frame) : 0.274
Stream size : 1.21 GiB (83%)
Title : DVDRip by Vaippp
Writing library : x264 core 112 r1867 22bfd31
Encoding settings : cabac=1 / ref=8 / deblock=1:-2:-1 / analyse=0x3:0x113 / me=umh / subme=9 / psy=1 / psy_rd=1.00:0.10 / mixed_ref=1 / me_range=32 / chroma_me=1 / trellis=1 / 8x8dct=1 / cqm=0 / deadzone=21,11 / fast_pskip=0 / chroma_qp_offset=-3 / threads=4 / sliced_threads=0 / nr=0 / decimate=1 / interlaced=0 / constrained_intra=0 / bframes=7 / b_pyramid=2 / b_adapt=2 / b_bias=0 / direct=3 / weightb=1 / open_gop=0 / weightp=2 / keyint=250 / keyint_min=25 / scenecut=40 / intra_refresh=0 / rc_lookahead=60 / rc=2pass / mbtree=1 / bitrate=2180 / ratetol=1.0 / qcomp=0.60 / qpmin=10 / qpmax=51 / qpstep=4 / cplxblur=20.0 / qblur=0.5 / ip_ratio=1.40 / aq=1:1.00
Audio #2
ID : 2
Format : AC-3
Format/Info : Audio Coding 3
Codec ID : A_AC3
Duration : 1h 21mn
Bit rate mode : Constant
Bit rate : 384 Kbps
Channel(s) : 6 channels
Channel positions : Front: L C R, Surround: L R, LFE
Sampling rate : 48.0 KHz
Stream size : 223 MiB (15%)
Title : Дубляж R5
Language : Russian
Text #3
ID : 3
Format : UTF-8
Codec ID : S_TEXT/UTF8
Codec ID/Info : UTF-8 Plain Text
Language : Russian








реклама партнёра


Вернуться к началу
 Профиль Отправить личное сообщение  
 
   Похожие торренты   Автор   Торрент   Размер 
В этой теме нет новых непрочитанных сообщений. Ужастики / Goosebumps (Роб Леттерман) [2015, фэнтези, комедия, приключения, HDRip] Dub

Nickolas3435

1355 | 30

2.05 ГБ

В этой теме нет новых непрочитанных сообщений. Ужастики / Goosebumps (Роб Леттерман) [2015, фэнтези, комедия, приключения, WEB-DLRip-AVC | iTunes] Dub

Nickolas3435

406 | 3

1.46 ГБ

В этой теме нет новых непрочитанных сообщений. Ужастики / Goosebumps (Роб Леттерман) [фэнтези, комедия, приключения, 2015] WEBRip, dub [Чистый звук]

Dracon

1787 | 17

1.37 ГБ

В этой теме нет новых непрочитанных сообщений. Ужастики / Goosebumps (Роб Леттерман) [фэнтези, комедия, приключения, 2015] WEBRip 720p, dub [Чистый звук]

Dracon

696 | 11

3.38 ГБ

В этой теме нет новых непрочитанных сообщений. Путешествие в медовый месяц / Honeymoon Travels Pvt. Ltd. [драма, мелодрама, комедия, 2007] DVDRip, Mvo [Red Media]

salma3

37 | 4

1.46 ГБ

В этой теме нет новых непрочитанных сообщений. Путешествия Жюля Верна / JV: The Extraordinary Adventures of Jules Verne / 1 сезон, 1-26 серии из 26 [Мультсериал, приключения, комедия, семейный, 2013] SATRip, Dub

salma3

28 | 5

7.82 ГБ

В этой теме нет новых непрочитанных сообщений. Санта на продажу / Rare Exports [фэнтези, приключения, комедия, 2010] BDRip, Dub+Sub [Лицензия]

salma3

19 | 2

1.46 ГБ


Начать новую тему Ответить на тему  [ 1 сообщение ] 




Для Мосгорсуда, Роскомнадзора и рекламодателей:: mosgorsud-torrent[собачка]yandex.ru