Торрент файл
скачать торрент магнет ссылка Добавлен: 28 апр 2011, 22:30
Размер: 2.18 ГБ
Сидеров: 57
Личеров: 4
Автор

СообщениеДобавлено: 28 апр 2011, 22:30 

Не в сети
Супермодератор
Аватара пользователя
Дата регистрации:
22 май 2010, 11:03
Возраст: 31
Спасибо: 7513 / 13
Сообщения: 49940
Управление гневом / Anger Management





Перевод: Профессиональный (полное дублирование)
Субтитры::Русские, английские

Формат: HDRip, MKV, H.264, AC3

Страна: США

Режиссер: Питер Сигал
Жанр: Комедия, мелодрама
Продолжительность: 01:45:02
Год выпуска: 2003

В ролях: Адам Сэндлер, Джек Николсон, Мариса Томей, Луис Гузман, Джонатан Лоугрэн, Курт Фуллер, Криста Аллен, Дженьюэри Джонс, Джон Туртурро, Нэнси Уоллс

Описание: Есть два типа агрессивных людей, — рассказывает своему пациенту доктор Райделл. — Первые, ты их видишь, когда идешь в магазин и возле кассы наблюдаешь за человеком, который орет на кассира за то, что тот не принимает его купон. Эти люди агрессивны, но они агрессивны внешне.

Второй тип — это интровертные агрессоры. Это кассир, который молча и с деланной вежливостью выслушает все угрозы в свой адрес, перетерпит, а через два года вскипит, придет в тот же магазин с автоматом и расстреляет весь персонал и покупателей.

У вас все в порядке с нервами? Дэйв Базник тоже думал, что он — абсолютно нормальный человек. Ну, подумаешь, разок нагрубил стюардессе — бывает, не сдержался. И чтобы за такую малость человека определяли на курсы «управления гневом»?!






Видео: 1024x432(2.35:1), 23,976 кадр/сек, MPEG-4 AVC, 2595 Кбит/с, 0.245 бит/пиксель
Аудио #1:Русский: 48 kHz, AC3 Dolby Digital, 3/2 (L,C,R,l,r) + LFE ch, 384.00 kbps avg [Профессиональный (полное дублирование)]



Релиз группы

Общее
UniqueID/String: 245011520541542147109765902962399066947 (0xB853809E24C58E6296C3E32DF7AB3B43)
Полное имя: C:\Users\Edgars\Videos\Upravlenie.gnevom.2003.х264.BDRip(AVC)-ed_rez.mkv
Формат: Matroska
Размер файла: 2,18 Гбайт
Продолжительность: 1 ч. 45 м.
Общий поток: 2977 Кбит/сек
Дата кодирования: UTC 2011-02-04 06:57:50
Программа кодирования: mkvmerge v4.4.0 ('Die Wiederkehr') built on Oct 31 2010 21:52:48
Библиотека кодирования: libebml v1.0.0 + libmatroska v1.0.0

Видео
Идентификатор: 1
Формат: AVC
Формат/Информация: Advanced Video Codec
Профиль формата:
Параметр CABAC формата: Да
Параметр ReFrames формата: 8 кадры
Режим смешивания: Header stripping
Идентификатор кодека: V_MPEG4/ISO/AVC
Продолжительность: 1 ч. 45 м.
Битрейт: 2595 Кбит/сек
Ширина: 1024 пикс.
Высота: 432 пикс.
Соотношение сторон: 2,35:1
Частота кадров: 23,976 кадр/сек
Цветовое пространство: YUV
Подвыборка цветности: 4:2:0
Битовая глубина: 8 бит
Тип развёртки: Прогрессивная
Бит/(Пиксели*Кадры): 0.245
Размер потока: 1,86 Гбайт (85%)
Библиотека кодирования: x264 core 112 r1867 22bfd31
Язык: English

Аудио
Идентификатор: 2
Формат: AC-3
Формат/Информация: Audio Coding 3
Расширение режима: CM (complete main)
Режим смешивания: Header stripping
Идентификатор кодека: A_AC3
Продолжительность: 1 ч. 45 м.
Вид битрейта: Постоянный
Битрейт: 384 Кбит/сек
Канал(ы): 6 канала(ов)
Расположение каналов: Front: L C R, Side: L R, LFE
Частота: 48,0 КГц
Битовая глубина: 16 бит
Метод сжатия: С потерями
Размер потока: 288 Мбайт (13%)
Заголовок: DUB
Язык: Russian

Текст #1
Идентификатор: 3
Формат: UTF-8
Идентификатор кодека: S_TEXT/UTF8
Идентификатор кодека/Информация: UTF-8 Plain Text
Язык: Russian

Текст #2
Идентификатор: 4
Формат: UTF-8
Идентификатор кодека: S_TEXT/UTF8
Идентификатор кодека/Информация: UTF-8 Plain Text
Язык: English









реклама партнёра


Вернуться к началу
 Профиль Отправить личное сообщение  
 
   Похожие торренты   Автор   Торрент   Размер 
В этой теме нет новых непрочитанных сообщений. Управление гневом / Anger Management (Роб Шиллер) (Сезон 1-2, Серии 1-74 из ХХ) [2012-2014, Комедия, ситком, HDTVRip-AVC 720р] [DD5.1] [MVO] [LostFilm]

Враг Нароода

3 | 9

49.88 ГБ

В этой теме нет новых непрочитанных сообщений. Любовный менеджмент / Management [драма, мелодрама, комедия, 2008] HDRip, Mvo+Sub [Лицензия]

salma3

52 | 3

1.46 ГБ

В этой теме нет новых непрочитанных сообщений. Бесстыжие / Бесстыдники / Shameless (US) [05x01-02 из 12] (Марк Майлод, Джон Уэллс, Мими Ледер, Санаа Хамри, Питер Сигал)[2015, драма, комедия, HDTVRip | AlexFilm]

Nickolas3435

22 | 16

1.36 ГБ

В этой теме нет новых непрочитанных сообщений. Бесстыжие / Бесстыдники / Shameless (US) [05x01-08 из 12] (Марк Майлод, Джон Уэллс, Мими Ледер, Санаа Хамри, Питер Сигал) [2015, драма, комедия, HDTVRip | AlexFilm]

Nickolas3435

47 | 49

4.93 ГБ

В этой теме нет новых непрочитанных сообщений. Бесстыжие / Бесстыдники / Shameless (US) [05x01-06 из 12] (Марк Майлод, Джон Уэллс, Мими Ледер, Санаа Хамри, Питер Сигал)[2015, драма, комедия, HDTVRip | AlexFilm]

Nickolas3435

249 | 287

3.74 ГБ

В этой теме нет новых непрочитанных сообщений. Бесстыжие / Бесстыдники / Shameless (US) [05x01-08 из 12] (Марк Майлод, Джон Уэллс, Мими Ледер, Санаа Хамри, Питер Сигал) [2015, драма, комедия, HDTVRip 720p | AlexFilm]

Nickolas3435

23 | 33

10.82 ГБ

В этой теме нет новых непрочитанных сообщений. Бесстыжие / Бесстыдники / Shameless (US) [05x01-02 из 12] (Марк Майлод, Джон Уэллс, Мими Ледер, Санаа Хамри, Питер Сигал) [2015, драма, комедия, HDTVRip 720p | AlexFilm]

Nickolas3435

57 | 10

3.02 ГБ


Начать новую тему Ответить на тему  [ 1 сообщение ] 




Для Мосгорсуда, Роскомнадзора и рекламодателей:: mosgorsud-torrent[собачка]yandex.ru