Торрент файл
скачать торрент магнет ссылка Добавлен: 28 апр 2011, 22:30
Размер: 2.23 ГБ
Сидеров: 35
Личеров: 8
Автор

СообщениеДобавлено: 28 апр 2011, 22:30 

Не в сети
Супермодератор
Аватара пользователя
Дата регистрации:
22 май 2010, 11:03
Возраст: 31
Спасибо: 7524 / 13
Сообщения: 49940
Битлджус / Beetle Juice



Перевод: Профессиональный (полное дублирование), cубтитры: отсутствуют
Формат: HDRip-AVC, MKV, H.264, AC3
Страна: США
Режиссер: Тим Бёртон
Жанр: комедия, фэнтези
Продолжительность: 01:32:06
Год выпуска: 1988
В ролях: Алек Болдуин, Джина Дэвис, Майкл Китон, Вайнона Райдер

Описание: Что сделает пара профессиональных привидений, когда их добрую Новую Англию наводнят снобы из Нью-Йорка? Они наймут частного «био-экзорциста», чтобы изгнать пришельцев. И результат превзойдет все ожидания!



Видео: 1280х720 (16:9), 23,976 fps, AVC_(H264), , 3085 kbps avg, 0.140 bit/pixel
Аудио: 48 kHz, AC3 Dolby Digital, 3/2 (L,C,R,l,r) + LFE ch, 384 kbps avg


Общее
Уникальный идентификатор : 232057469664923320099061640625899553559 (0xAE94A49954A8E8E49611A1411925C317)
Полное имя : D:\Битлджус\Beetle_Juice_[tfile.ru].mkv
Формат : Matroska
Размер файла : 2,23 Гбайт
Продолжительность : 1 ч. 32 м.
Общий поток : 3468 Кбит/сек
Название фильма : Beetlejuice (1988)
Дата кодирования : UTC 2011-02-05 10:22:25
Программа кодирования : mkvmerge v4.4.0 ('Die Wiederkehr') сборка от Oct 31 2010 21:52:48
Библиотека кодирования : libebml v1.0.0 + libmatroska v1.0.0

Видео
Идентификатор : 1
Формат : AVC
Формат/Информация : Advanced Video Codec
Профиль формата :
Параметр CABAC формата : Да
Параметр ReFrames формата : 4 кадры
Режим смешивания : Header stripping
Идентификатор кодека : V_MPEG4/ISO/AVC
Продолжительность : 1 ч. 32 м.
Битрейт : 3085 Кбит/сек
Ширина : 1280 пикс.
Высота : 720 пикс.
Соотношение сторон : 16:9
Частота кадров : 23,976 кадр/сек
Цветовое пространство : YUV
Подвыборка цветности : 4:2:0
Битовая глубина : 8 бит
Тип развёртки : Прогрессивная
Бит/(Пиксели*Кадры) : 0.140
Размер потока : 1,94 Гбайт (87%)
Библиотека кодирования : x264 core 112 r1867 22bfd31
Настройки программы : cabac=1 / ref=3 / deblock=1:-1:-1 / analyse=0x3:0x113 / me=hex / subme=7 / psy=1 / psy_rd=1.00:0.15 / mixed_ref=1 / me_range=16 / chroma_me=1 / trellis=1 / 8x8dct=1 / cqm=0 / deadzone=21,11 / fast_pskip=1 / chroma_qp_offset=-3 / threads=3 / sliced_threads=0 / nr=0 / decimate=1 / interlaced=0 / constrained_intra=0 / bframes=3 / b_pyramid=2 / b_adapt=1 / b_bias=0 / direct=1 / weightb=1 / open_gop=0 / weightp=2 / keyint=250 / keyint_min=23 / scenecut=40 / intra_refresh=0 / rc_lookahead=40 / rc=2pass / mbtree=1 / bitrate=3085 / ratetol=1.0 / qcomp=0.60 / qpmin=0 / qpmax=51 / qpstep=4 / cplxblur=20.0 / qblur=0.5 / ip_ratio=1.40 / aq=1:1.00
Язык : English

Аудио
Идентификатор : 2
Формат : AC-3
Формат/Информация : Audio Coding 3
Расширение режима : CM (complete main)
Режим смешивания : Header stripping
Идентификатор кодека : A_AC3
Продолжительность : 1 ч. 32 м.
Вид битрейта : Постоянный
Битрейт : 384 Кбит/сек
Канал(ы) : 6 канала(ов)
Расположение каналов : Front: L C R, Side: L R, LFE
Частота : 48,0 КГц
Битовая глубина : 16 бит
Метод сжатия : С потерями
Размер потока : 253 Мбайт (11%)
Заголовок : AC3 - 384 Kbps (Dubbed)
Язык : Russian










реклама партнёра


Вернуться к началу
 Профиль Отправить личное сообщение  
 
   Похожие торренты   Автор   Торрент   Размер 
В этой теме нет новых непрочитанных сообщений. Битлджус / Beetle Juice [Фэнтези, комедия, 1988] BDRip 1080p, Dub+2Mvo+3Dvo+4Avo+Sub

salma3

19 | 5

11.38 ГБ

В этой теме нет новых непрочитанных сообщений. Битлджус / Beetle Juice [Фэнтези, комедия, 1988] Blu-Ray Remux 1080р, Dub+2Mvo+3Dvo+4Avo+Sub

salma3

17 | 6

17.79 ГБ

В этой теме нет новых непрочитанных сообщений. Ад в Лягушачьем городе / Hell Comes to Frogtown [Ужасы, фэнтези, комедия, 1988] HDRip, Avo

salma3

10 | 2

1.41 ГБ

В этой теме нет новых непрочитанных сообщений. Новая рождественская сказка / Scrooged [фэнтези, драма, комедия, 1988] HDRip, Mvo

salma3

66 | 7

1.46 ГБ

В этой теме нет новых непрочитанных сообщений. Барашек Шон / Shaun the Sheep Movie (Марк Бертон) [Приключения, Семейный, Комедия, Мультфильм, 2015] HDRip, [Лицензия / русский видеоряд]

Dracon

237 | 1

1.37 ГБ

В этой теме нет новых непрочитанных сообщений. Король-лягушонок / Der Froschkonig [фэнтези, мелодрама, семейный, 1988] HDRip, Avo

salma3

13 | 0

743.3 МБ

В этой теме нет новых непрочитанных сообщений. Богиня Любви / Goddess of Love [фэнтези, комедия, 1988] DVDRip, Dvo

salma3

24 | 9

745.28 МБ


Начать новую тему Ответить на тему  [ 1 сообщение ] 




Для Мосгорсуда, Роскомнадзора и рекламодателей:: mosgorsud-torrent[собачка]yandex.ru