COVID-19 - Последняя информация о коронавирусе на сайте Минздрава




Торрент файл
скачать торрент магнет ссылка Добавлен: 19 фев 2019, 21:25
Размер: 1.32 ГБ
Сидеров: 0
Личеров: 0
Статус: (salma3)
Автор

СообщениеДобавлено: 19 фев 2019, 21:25 

Не в сети
Супермодератор
Аватара пользователя
Дата регистрации:
15 фев 2012, 16:44
Возраст: 32
Спасибо: 8304 / 2148
Сообщения: 97121
Год выхода: 2019
Жанр: Боевик, триллер
Режиссер: Адриан Асеведо-Смит, Артуро Асеведо-Смит

В ролях: Зак Шерер, Франциска Шисслер, Дэвид Джош Лоуренс, Николай Александров, Келси Джонсон, Тайлер Коул, Арамис Мерлин, Дэвид Сауседо, Ками Д. Брудер, Мишель Александрия

О фильме:
Дискредитированный бывший спецназовец соглашается на работу охотника за душами, предложенную ему демоном. Когда его бывший коллега становится серийным убийцей, выбрав своей главной целью охотника за душами, воцаряется хаос.



Страна: США,Acevedo Smith Productions
Продолжительность: 01:41:46
Перевод: Любительский (двухголосый закадровый) | HiWay Grope

Файл
Кодек: XviD
Качество: WEBRip
Видео: 720x400, 23.976 fps, ~1663 kbps, 0.24 bit/pixel
Аудио rus: AC3, 48 kHz, 2 ch, 192 Kbps

Реклама: присутствует

Семпл

General
Complete name : D:Soul.Hunters.2019.WEBRip.HiWayGropeSoul.Hunters.2019.WEBRip.HiWayGrope.avi
Format : AVI
Format/Info : Audio Video Interleave
Format profile : OpenDML
File size : 1.32 GiB
Duration : 1 h 41 min
Overall bit rate : 1 862 kb/s
Writing application : Lavf58.20.100

Video
ID : 0
Format : MPEG-4 Visual
Format profile : Advanced Simple@L5
Format settings : BVOP1
Format settings, BVOP : 1
Format settings, QPel : No
Format settings, GMC : No warppoints
Format settings, Matrix : Default (H.263)
Codec ID : XVID
Codec ID/Hint : XviD
Duration : 1 h 41 min
Bit rate : 1 658 kb/s
Width : 720 pixels
Height : 400 pixels
Display aspect ratio : 16:9
Frame rate : 23.976 (24000/1001) FPS
Color space : YUV
Chroma subsampling : 4:2:0
Bit depth : 8 bits
Scan type : Progressive
Compression mode : Lossy
Bits/(Pixel*Frame) : 0.240
Stream size : 1.18 GiB (89%)
Writing library : XviD 67

Audio
ID : 1
Format : AC-3
Format/Info : Audio Coding 3
Commercial name : Dolby Digital
Codec ID : 2000
Duration : 1 h 41 min
Bit rate mode : Constant
Bit rate : 192 kb/s
Channel(s) : 2 channels
Channel layout : L R
Sampling rate : 48.0 kHz
Frame rate : 31.250 FPS (1536 SPF)
Bit depth : 16 bits
Compression mode : Lossy
Stream size : 140 MiB (10%)
Alignment : Aligned on interleaves
Interleave, duration : 32 ms (0.77 video frame)
Service kind : Complete Main



Релиз от: HiWay Grope


_________________
Проголосуй за трекер Открытый торрент трекер - RUS-MEDIA.ORG

Проголосуй Открытый торрент трекер - RUS-MEDIA.ORG


Скачать книги и аудио книги через торрент


Вернуться к началу
 Профиль Отправить личное сообщение  
 
   Похожие торренты   Автор   Торрент   Размер 
В этой теме нет новых непрочитанных сообщений. Охотники за душами / Soul Hunters [Боевик, триллер, 2019] WEBRip 720p, Dvo

salma3

0 | 0

2.22 ГБ

В этой теме нет новых непрочитанных сообщений. Охотники за душами / Soul Hunters [Боевик, триллер, 2019] WEB-DLRip-AVC, Dvo

salma3

1 | 0

1.44 ГБ

В этой теме нет новых непрочитанных сообщений. Охотники за душами / Soul Hunters [Боевик, триллер, 2019] WEB-DLRip, Mvo

salma3

15 | 3

1.46 ГБ

В этой теме нет новых непрочитанных сообщений. Охотники / Hunters [S01] [Драма, 2020] WEBRip, Dvo [Gears Media]

salma3

0 | 0

7.4 ГБ

В этой теме нет новых непрочитанных сообщений. Охотники / Hunters [S01] [Драма, 2020] WEBRip 1080p, Dvo [Gears Media]

salma3

0 | 0

42.23 ГБ

В этой теме нет новых непрочитанных сообщений. Охотники / The Hunters [боевик, драма, мелодрама, 1958] HDRip, Avo

salma3

0 | 0

1.46 ГБ

В этой теме нет новых непрочитанных сообщений. Nat Geo Wild: Дикие охотники. Медведи / Wild Hunters. Bears (2019) HDTVRip | P1

salma3

0 | 0

630.46 МБ


Начать новую тему Ответить на тему  [ 1 сообщение ] 




Для Мосгорсуда, Роскомнадзора и рекламодателей:: rstracker[собака]yandex.ru
cron