Торрент файл
скачать торрент магнет ссылка Добавлен: 28 апр 2011, 00:15
Размер: 1.79 ГБ
Сидеров: 5
Личеров: 5
Автор

СообщениеДобавлено: 28 апр 2011, 00:15 

Не в сети
Супермодератор
Аватара пользователя
Дата регистрации:
22 май 2010, 11:03
Возраст: 31
Спасибо: 7509 / 13
Сообщения: 49940
История любви и кинжала / Er piu: storia d'amore e di coltello


Перевод: Профессиональный (многоголосый, закадровый)

Cубтитры: отсутствуют

Формат: DVDRip-AVC, MKV, H.264, AC3

Страна: Италия

Режиссер: Серджио Корбуччи

Жанр: драма, комедия

Продолжительность: 01:41:30

Год выпуска: 1971

В ролях: Адриано Челентано, Клаудия Мори, Фиоренцо Фиорентини, Витторио Каприоли, Ромоло Валли, Джанни Маччиа, Маурицио Арена, Нинетто Даволи, Джино Сантерколе, Анита Дюранте .…

Описание: Крутой бандит Нино, держащий в страхе целый квартал Рима, возвращается из тюрьмы. Он узнает, что за его невестой, красавицей Розой, ухаживает мясник Агусто. Такой наглости Нино не мог стерпеть… Но у покойника остались три брата. Теперь кровавой вендетты не избежать..…

Рейтинг Кинопоиск.RU: 6.822
Рейтинг IMDB: 5.6/10

Видео: 720x432 (1,667), 25,000 fps, MPEG4 AVC, , 2200 kbps avg, 0.283 bit/pixel
Аудио#1: русский 48 kHz, AC3, 2/0 (L,R) ch, ~192.00 kbps avg] [Профессиональный (многоголосый, закадровый)]
Аудио#2: итальянский 48 kHz, AC3, 2/0 (L,R) ch, ~128.00 kbps avg [оригинал]


Видео
Идентификатор : 1
Формат : AVC
Формат/Информация : Advanced Video Codec
Профиль формата :
Параметр CABAC формата : Да
Параметр ReFrames формата : 2 кадры
Идентификатор кодека : V_MPEG4/ISO/AVC
Продолжительность : 1 ч. 41 м.
Битрейт : 2200 Кбит/сек
Ширина : 720 пикс.
Высота : 432 пикс.
Соотношение сторон : 1,667
Частота кадров : 25,000 кадр/сек
Цветовое пространство : YUV
Подвыборка цветности : 4:2:0
Битовая глубина : 8 бит
Тип развёртки : Прогрессивная
Бит/(Пиксели*Кадры) : 0.283
Размер потока : 1,52 Гбайт (85%)
Заголовок : ice
Библиотека кодирования : x264 core 65 r999kMod cc51047
Настройки программы : cabac=1 / ref=1 / deblock=0:0:0 / analyse=0x3:0x133 / me=hex / subme=6 / psy_rd=1.0:0.0 / mixed_ref=0 / me_range=16 / chroma_me=1 / trellis=0 / 8x8dct=1 / cqm=0 / deadzone=21,11 / chroma_qp_offset=-2 / threads=2 / thread_queue=2 / nr=0 / decimate=1 / mbaff=0 / bframes=3 / b_pyramid=0 / b_adapt=1 / b_bias=0 / direct=3 / wpredb=0 / keyint=250 / keyint_min=25 / scenecut=40(pre) / rc=abr / bitrate=2200 / ratetol=1.0 / qcomp=0.60 / qpmin=10 / qpmax=51 / qpstep=4 / ip_ratio=1.40 / pb_ratio=1.30 / aq=1:1.00
Язык : Italian

Аудио #1
Идентификатор : 2
Формат : AC-3
Формат/Информация : Audio Coding 3
Расширение режима : CM (complete main)
Идентификатор кодека : A_AC3
Продолжительность : 1 ч. 41 м.
Вид битрейта : Постоянный
Битрейт : 192 Кбит/сек
Канал(ы) : 2 канала(ов)
Расположение каналов : Front: L R
Частота : 48,0 КГц
Битовая глубина : 16 бит
Метод сжатия : С потерями
Размер потока : 140 Мбайт (8%)
Язык : Russian

Аудио #2
Идентификатор : 3
Формат : AC-3
Формат/Информация : Audio Coding 3
Расширение режима : CM (complete main)
Идентификатор кодека : A_AC3
Продолжительность : 1 ч. 41 м.
Вид битрейта : Постоянный
Битрейт : 128 Кбит/сек
Канал(ы) : 2 канала(ов)
Расположение каналов : Front: L R
Частота : 48,0 КГц
Битовая глубина : 16 бит
Метод сжатия : С потерями
Размер потока : 93,1 Мбайт (5%)
Язык : Italian














реклама партнёра


Вернуться к началу
 Профиль Отправить личное сообщение  
 
   Похожие торренты   Автор   Торрент   Размер 
В этой теме нет новых непрочитанных сообщений. Синьор Робинзон / Il signor Robinson, mostruosa storia d'amore e d'avventure [Комедия, приключения, 1976] BDRip 720p, Mvo

salma3

68 | 24

5.82 ГБ

В этой теме нет новых непрочитанных сообщений. История уединенной монахини / Storia di una monaca di clausura [драма, 1973] DVDRip. Avo

salma3

5 | 2

1.23 ГБ

В этой теме нет новых непрочитанных сообщений. Жить ради любви / Conviene far bene l'amore (Паскуале Феста Кампаниле / Pasquale Festa Campanile) [1975г., Италия, фантастика, комедия, DVDRip] AVO

Alfredovich

55 | 8

1.45 ГБ

В этой теме нет новых непрочитанных сообщений. Хроника насильственной любви / Дневник насильника / Cronaca di un amore violato / Diary of a rapist (Джакомо Баттиато / Giacomo Battiato) [1995г., Франция, драма, SATRip] DVO

Alfredovich

52 | 2

1.38 ГБ

В этой теме нет новых непрочитанных сообщений. Долгая, долгая, долгая ночь любви / Una lunga lunga lunga notte d'amore [драма, 2001] DVDRip, Dvo

salma3

17 | 4

1.46 ГБ

В этой теме нет новых непрочитанных сообщений. История любви / Une histoire d'amour [драма, 2013] DVDRip, Dvo

salma3

20 | 3

1.12 ГБ

В этой теме нет новых непрочитанных сообщений. Араукана / Последнее сражение инков / La araucana [приключения, драма, история, 1971] DVDRip. Avo

salma3

5 | 2

1.23 ГБ


Начать новую тему Ответить на тему  [ 1 сообщение ] 




Для Мосгорсуда, Роскомнадзора и рекламодателей:: mosgorsud-torrent[собачка]yandex.ru