COVID-19 - Последняя информация о коронавирусе на сайте Минздрава




Торрент файл
скачать торрент магнет ссылка Добавлен: 08 фев 2019, 12:30
Размер: 1.38 ГБ
Сидеров: 0
Личеров: 0
Статус: (salma3)
Автор

СообщениеДобавлено: 08 фев 2019, 12:30 

Не в сети
Супермодератор
Аватара пользователя
Дата регистрации:
15 фев 2012, 16:44
Возраст: 32
Спасибо: 8304 / 2148
Сообщения: 97126
Год выхода: 2018
Жанр: Триллер, драма, детектив
Режиссер: Джейсон Ното

В ролях: Тэмми Бланчард, Зейн Холц, Ажи Робертсон, Кейтлин Менер, Ченс Келли, Дэвид Фиерро, Энид Грэхэм, Джозеф Кастильо-Мидиетт, Нил Хафф, Шерман Ховард

О фильме:
После того как сын солдата раскрывает роковую информацию об исчезновении дочери местного гангстера, ситуация в затухающем шахтерском городке резко выходит из-под контроля.



Страна: США, NewAley Pictures
Продолжительность: 01:38:37
Перевод: Любительский (двухголосый закадровый) | HiWay Grope

Файл
Кодек: XviD
Качество: WEBRip
Видео: 720x304, 23.976 fps, ~1799 kbps, 0.34 bit/pixel
Аудио rus: AC3, 48 kHz, 2 ch, 192 Kbps

Реклама: присутствует

Семпл

General
Complete name : D:Beyond.the.Night.2018.WEBRip.HiWayGropeBeyond.the.Night.2018.WEBRip.HiWayGrope.avi
Format : AVI
Format/Info : Audio Video Interleave
Format profile : OpenDML
File size : 1.38 GiB
Duration : 1 h 38 min
Overall bit rate : 1 998 kb/s
Writing application : Lavf57.71.100

Video
ID : 0
Format : MPEG-4 Visual
Format profile : Advanced Simple@L5
Format settings, BVOP : No
Format settings, QPel : No
Format settings, GMC : No warppoints
Format settings, Matrix : Default (H.263)
Codec ID : XVID
Codec ID/Hint : XviD
Duration : 1 h 38 min
Bit rate : 1 794 kb/s
Width : 720 pixels
Height : 304 pixels
Display aspect ratio : 2.35:1
Frame rate : 23.976 (24000/1001) FPS
Color space : YUV
Chroma subsampling : 4:2:0
Bit depth : 8 bits
Scan type : Progressive
Compression mode : Lossy
Bits/(Pixel*Frame) : 0.342
Stream size : 1.24 GiB (90%)
Writing library : XviD 67

Audio
ID : 1
Format : AC-3
Format/Info : Audio Coding 3
Commercial name : Dolby Digital
Codec ID : 2000
Duration : 1 h 38 min
Bit rate mode : Constant
Bit rate : 192 kb/s
Channel(s) : 2 channels
Channel layout : L R
Sampling rate : 48.0 kHz
Frame rate : 31.250 FPS (1536 SPF)
Bit depth : 16 bits
Compression mode : Lossy
Stream size : 135 MiB (10%)
Alignment : Aligned on interleaves
Interleave, duration : 32 ms (0.77 video frame)
Service kind : Complete Main



Релиз от: HiWay Grope


_________________
Проголосуй за трекер Открытый торрент трекер - RUS-MEDIA.ORG

Проголосуй Открытый торрент трекер - RUS-MEDIA.ORG


Скачать книги и аудио книги через торрент


Вернуться к началу
 Профиль Отправить личное сообщение  
 
   Похожие торренты   Автор   Торрент   Размер 
В этой теме нет новых непрочитанных сообщений. Под покровом ночи / Beyond the Night [Триллер, драма, детектив, 2018] WEBRip 720p, Dvo

salma3

0 | 0

2.18 ГБ

В этой теме нет новых непрочитанных сообщений. Под покровом ночи / Beyond the Night [Триллер, драма, детектив, 2018] WEB-DL 1080p, Mvo

salma3

0 | 0

6.28 ГБ

В этой теме нет новых непрочитанных сообщений. Под покровом ночи / Ночные животные / Nocturnal Animals [Триллер, драма, 2016] BDRip 1080p, Dub [Лицензия]

salma3

0 | 0

13.57 ГБ

В этой теме нет новых непрочитанных сообщений. Система / The System [Триллер, драма, детектив, 2018] WEBRip, Dvo

salma3

55 | 14

1.12 ГБ

В этой теме нет новых непрочитанных сообщений. Будто во сне / State Like Sleep [драма, триллер, детектив, 2018] WEBRip, Dvo

salma3

1 | 0

760.93 МБ

В этой теме нет новых непрочитанных сообщений. Тени на дороге / Shadows on the Road [Триллер, драма, детектив, 2018] WEBRip, Dvo

salma3

0 | 0

1 ГБ

В этой теме нет новых непрочитанных сообщений. Тени на дороге / Shadows on the Road [Триллер, драма, детектив, 2018] WEBRip 720p, Dvo

salma3

0 | 0

1.6 ГБ


Начать новую тему Ответить на тему  [ 1 сообщение ] 




Для Мосгорсуда, Роскомнадзора и рекламодателей:: rstracker[собака]yandex.ru
cron