COVID-19 - Последняя информация о коронавирусе на сайте Минздрава




Торрент файл
скачать торрент магнет ссылка Добавлен: 27 янв 2019, 12:37
Размер: 745.05 МБ
Сидеров: 0
Личеров: 0
Статус: (salma3)
Автор

СообщениеДобавлено: 27 янв 2019, 12:37 

Не в сети
Супермодератор
Аватара пользователя
Дата регистрации:
15 фев 2012, 16:44
Возраст: 32
Спасибо: 8298 / 2148
Сообщения: 97020
Год выхода: 1986
Жанр: драма, спорт
Режиссер: Мартин Скорсезе

В ролях: Пол Ньюман, Том Круз, Мэри Элизабет Мастрантонио, Хелен Шейвер, Джон Туртурро, Билл Коббс, Роберт Эджинс, Элвин Анастасия

О фильме:
Быстрому Эдди, виртуозному игроку в бильярд, нет равных за зелёным столом. Для других это развлечение, для него — серьёзная работа и большие деньги. У него появляется конкурент, новичок Винс, у которого есть всё, что нужно для победы: талант, везение и поддержка обворожительной подруги, но ему не хватает почерка мастера. Эдди становится его наставником и учит восходящую звезду тонкостям большой игры. На зелёном сукне, цвета денег, один на один с судьбой…



Страна: США
Продолжительность: 01:59:39
Перевод: Профессиональный (дублированный)

Файл
Кодек: x.264
Качество: BDRip-AVC
Видео: MPEG-4 AVC, 796 Кбит/с, 720x384, 0.120 bit/pixel
Звук: AAC-HE, 2 ch, 72 Кбит/с

General
Unique ID : 295321188232540981965879729373263675438 (0xDE2CCABE14C13CE37BBFAF1B2AEFC02E)
Complete name : K:1Том КрузЦвет денег.mkv
Format : Matroska
Format version : Version 4 / Version 2
File size : 745 MiB
Duration : 1 h 59 min
Overall bit rate : 871 kb/s
Encoded date : UTC 2019-01-26 22:54:28
Writing application : mkvmerge v25.0.0 ('Prog Noir') 64-bit
Writing library : libebml v1.3.6 + libmatroska v1.4.9
Cover : Yes
Attachments : cover.png

Video
ID : 1
Format : AVC
Format/Info : Advanced Video Codec
Format profile : High@L4.1
Format settings : CABAC / 12 Ref Frames
Format settings, CABAC : Yes
Format settings, ReFrames : 12 frames
Codec ID : V_MPEG4/ISO/AVC
Duration : 1 h 59 min
Bit rate : 796 kb/s
Width : 720 pixels
Height : 384 pixels
Display aspect ratio : 1.85:1
Frame rate mode : Constant
Frame rate : 23.976 (24000/1001) FPS
Color space : YUV
Chroma subsampling : 4:2:0
Bit depth : 8 bits
Scan type : Progressive
Bits/(Pixel*Frame) : 0.120
Stream size : 680 MiB (91%)
Writing library : x264 core 152 r2851 ba24899
Encoding settings : cabac=1 / ref=12 / deblock=1:-3:-3 / analyse=0x3:0x133 / me=umh / subme=11 / psy=1 / psy_rd=1.00:0.15 / mixed_ref=1 / me_range=48 / chroma_me=1 / trellis=2 / 8x8dct=1 / cqm=0 / deadzone=21,11 / fast_pskip=0 / chroma_qp_offset=-3 / threads=6 / lookahead_threads=1 / sliced_threads=0 / nr=0 / decimate=0 / interlaced=0 / bluray_compat=0 / constrained_intra=0 / bframes=11 / b_pyramid=2 / b_adapt=2 / b_bias=0 / direct=3 / weightb=1 / open_gop=0 / weightp=2 / keyint=240 / keyint_min=23 / scenecut=40 / intra_refresh=0 / rc=2pass / mbtree=0 / bitrate=796 / ratetol=1.0 / qcomp=0.60 / qpmin=0 / qpmax=69 / qpstep=4 / cplxblur=20.0 / qblur=0.5 / ip_ratio=1.40 / pb_ratio=1.30 / aq=1:1.00
Default : Yes
Forced : No

Audio
ID : 2
Format : AAC
Format/Info : Advanced Audio Codec
Format profile : HE-AAC / LC
Format settings : Explicit
Codec ID : A_AAC-2
Duration : 1 h 59 min
Bit rate : 72.0 kb/s
Channel(s) : 2 channels
Channel positions : Front: L R
Sampling rate : 48.0 kHz / 24.0 kHz
Frame rate : 23.438 FPS (1024 SPF)
Compression mode : Lossy
Delay relative to video : 31 ms
Stream size : 61.6 MiB (8%)
Default : Yes
Forced : No

Menu
00:00:00.097 : en:00:00:00.097



_________________
Проголосуй за трекер Открытый торрент трекер - RUS-MEDIA.ORG

Проголосуй Открытый торрент трекер - RUS-MEDIA.ORG


Скачать книги и аудио книги через торрент


Вернуться к началу
 Профиль Отправить личное сообщение  
 
   Похожие торренты   Автор   Торрент   Размер 
В этой теме нет новых непрочитанных сообщений. Цвет денег / The Color of Money [Драма, спорт, экранизация, 1986] BDRip 720p, Dub

salma3

0 | 0

7.82 ГБ

В этой теме нет новых непрочитанных сообщений. Цвет из иных миров / Color Out of Space [Ужасы, фантастика, 2019] BDRip 1080p, Dub [iTunes]

salma3

0 | 0

10.95 ГБ

В этой теме нет новых непрочитанных сообщений. Цвет из иных миров / Color Out of Space [Ужасы, фантастика, 2019] BDRip 720p, Dub [iTunes]

salma3

0 | 0

4.38 ГБ

В этой теме нет новых непрочитанных сообщений. Быстрый цвет / Fast Color [Фантастика, триллер, драма, 2018] BDRip, MAvo [Kerob]

salma3

0 | 0

1.45 ГБ

В этой теме нет новых непрочитанных сообщений. Цвет ночи / Color of Night [триллер, мелодрама, детектив, 1994] BDRip, Mvo [Director's Cut]

salma3

0 | 0

2.18 ГБ

В этой теме нет новых непрочитанных сообщений. Быстрый цвет / Fast Color [фантастика, триллер, драма, 2018] WEB-DLRip, Mvo

NTL

2 | 0

1.37 ГБ

В этой теме нет новых непрочитанных сообщений. Быстрый цвет / Fast Color [Фантастика, триллер, драма, 2018] WEB-DLRip, Dvo [KerobTV]

salma3

189 | 49

1.37 ГБ


Начать новую тему Ответить на тему  [ 1 сообщение ] 




Для Мосгорсуда, Роскомнадзора и рекламодателей:: rstracker[собака]yandex.ru
cron