Торрент файл
скачать торрент магнет ссылка Добавлен: 27 апр 2011, 23:31
Размер: 697.11 МБ
Сидеров: 43
Личеров: 5
Автор

СообщениеДобавлено: 27 апр 2011, 23:31 

Не в сети
Супермодератор
Аватара пользователя
Дата регистрации:
22 май 2010, 11:03
Возраст: 31
Спасибо: 7524 / 13
Сообщения: 49940
Реальная любовь / Love actually



Перевод: Профессиональный (полное дублирование), cубтитры: есть (русские, английские)

Слоган: «It's All About Love... Actually.»

Формат: DVDRip, MKV, H.264, AAC
Страна: США
Режиссер: Ричард Кертис
Жанр: комедия
Продолжительность: 02:09:15
Год выпуска: 2003

В ролях: Билл Найи, Грегор Фишер, Рори МакГрегор, Колин Фёрт, Сиенна Гиллори, Лиам Нисон, Эмма Томпсон, Лулу Попплуэлл, Крис Маршалл, Хайке Макатч

Описание: Любовь незабываемая и недосягаемая, вызывающая сожаление и экстатическая, неожиданная и нежеланная, неудобная и необъяснимая, неизящная и неравная. Любовь поистине правит всеми вокруг. От премьер-министра, мгновенно влюбившегося в сотрудницу своего аппарата, — до писателя, сбежавшего на юг Франции, чтобы склеить свое разбитое сердце…

От замужней женщины, подозревающей, что ее муж отдаляется от нее, — до женщины, только что вступившей в брак и почувствовавшей холодность лучшего друга своего мужа… От тинейджера, пытающегося завоевать внимание самой неприступной девочки в школе, — до овдовевшего отчима, пытающегося установить контакт с сыном, которого, как вдруг выясняется, он почти не знает…

От страдающей из-за безнадежной любви юной американки, решившей не упустить своего шанса с сослуживцем, — до стареющего рок-певца, ставшего жертвой внезапно накатившего чувства… Любовь вносит хаос в жизнь каждого из них, но не случайно пути-дороги лондонцев сталкиваются в канун Рождества…


Рейтинг на IMDB: 7.8/10
Рейтинг на КиноПоиск.RU: 8.187
Рейтинг на MPAA: R

Видео: 704x304 (2.35:1), 25 fps, MPEG4 AVC (x264) , ~558 kbps avg, 0.093 bit/pixel
Аудио #1:Русский: 48 KHz, OGG, 2 Ch , ~120 kbps avg [Профессиональный (полное дублирование)]
Аудио #2:Английский: 48 KHz, OGG, 2 Ch , ~120 kbps avg [оригинал]

Дополнительная информация:
бюджет = $40 000 000
сборы в США = $59 696 144
сборы в мире + $185 235 622 = $244 931 766
сборы в России = $2 070 000


Video #1
ID : 1
Format : AVC
Format/Info : Advanced Video Codec
Format profile :
Format settings, CABAC : Yes
Format settings, ReFrames : 16 frames
Muxing mode : Container profile=Unknown@5.1
Codec ID : V_MPEG4/ISO/AVC
Duration : 2h 9mn
Bit rate : 499 Kbps
Nominal bit rate : 558 Kbps
Width : 704 pixels
Height : 304 pixels
Display aspect ratio : 2.35:1
Frame rate : 25.000 fps
Resolution : 24 bits
Colorimetry : 4:2:0
Scan type : Progressive
Bits/(Pixel*Frame) : 0.093
Stream size : 461 MiB (66%)
Title : Love Actually
Writing library : x264 core 56 svn-680
Encoding settings : cabac=1 / ref=16 / deblock=1:-2:-1 / analyse=0x3:0x133 / me=umh / subme=7 / brdo=1 / mixed_ref=1 / me_range=16 / chroma_me=1 / trellis=2 / 8x8dct=1 / cqm=0 / deadzone=21,11 / chroma_qp_offset=0 / threads=3 / nr=0 / decimate=0 / mbaff=0 / bframes=3 / b_pyramid=1 / b_adapt=1 / b_bias=0 / direct=3 / wpredb=1 / bime=1 / keyint=250 / keyint_min=25 / scenecut=40(pre) / rc=2pass / bitrate=558 / ratetol=1.0 / rceq='blurCplx^(1-qComp)' / qcomp=0.60 / qpmin=10 / qpmax=51 / qpstep=4 / cplxblur=20.0 / qblur=0.5 / ip_ratio=1.40 / pb_ratio=1.30
Language : English
Audio #2
ID : 2
Format : Vorbis
Format settings, Floor : 1
Codec ID : A_VORBIS
Duration : 2h 9mn
Bit rate mode : Constant
Bit rate : 120 Kbps
Channel(s) : 2 channels
Sampling rate : 48.0 KHz
Stream size : 111 MiB (16%)
Writing library : libVorbis 1.2 (UTC 2007-06-22)
Language : Russian
Audio #3
ID : 3
Format : Vorbis
Format settings, Floor : 1
Codec ID : A_VORBIS
Duration : 2h 9mn
Bit rate mode : Constant
Bit rate : 120 Kbps
Channel(s) : 2 channels
Sampling rate : 48.0 KHz
Stream size : 111 MiB (16%)
Writing library : libVorbis 1.2 (UTC 2007-06-22)
Language : English
Text #4
ID : 4
Format : UTF-8
Codec ID : S_TEXT/UTF8
Codec ID/Info : UTF-8 Plain Text
Language : Russian
Text #5
ID : 5
Format : UTF-8
Codec ID : S_TEXT/UTF8
Codec ID/Info : UTF-8 Plain Text
Language : English








реклама партнёра


Вернуться к началу
 Профиль Отправить личное сообщение  
 
   Похожие торренты   Автор   Торрент   Размер 
В этой теме нет новых непрочитанных сообщений. Любовь есть любовь / Love is love / Wang fu cheng long (Томми Леунг Ка-Шу / Tommy Ga-shu Leung) [1990г., Китай, мелодрама, комедия, HDRip] VO

Alfredovich

6 | 5

1.46 ГБ

В этой теме нет новых непрочитанных сообщений. Все в порядке, это любовь / Просто это любовь / Ничего страшного, это любовь / It's Okay It's Love [01-16 из 16](Ким Кю Тхэ)[2014, мелодрама, романтика, комедия, психология, HDTVRip 720р]

Nickolas3435

9 | 5

18.51 ГБ

В этой теме нет новых непрочитанных сообщений. Любовный прогноз / Сегодняшняя любовь / Love Forecast / Today's Love (Чжин Пё Пак / Jin-pyo Park) [2015г., Южная Корея, комедия, мелодрама, HDRip] mvo

Alfredovich

4 | 3

1.47 ГБ

В этой теме нет новых непрочитанных сообщений. Грязная любовь / Dirty Love [комедия, мелодрама, 2005] DVDRip, Mvo

salma3

105 | 8

1.46 ГБ

В этой теме нет новых непрочитанных сообщений. Страна любви / The Republic of Love [мелодрама, комедия, 2003] DVDRip, Mvo

salma3

30 | 4

1.37 ГБ

В этой теме нет новых непрочитанных сообщений. Любовь в бегах / Love on the Run (Эш Кристиан / Ash Christian) [2016г., комедия, WEB-DLRip] mvo

Alfredovich

924 | 118

1.37 ГБ

В этой теме нет новых непрочитанных сообщений. Любовь матери 4 / A Mother's Love 4 (2016) DVDRip

Dievas

60 | 9

995.38 МБ


Начать новую тему Ответить на тему  [ 1 сообщение ] 




Для Мосгорсуда, Роскомнадзора и рекламодателей:: mosgorsud-torrent[собачка]yandex.ru